<?xml version="1.0" standalone="no"?>
<!DOCTYPE svg PUBLIC "-//W3C//DTD SVG 1.1//EN" "http://www.w3.org/Graphics/SVG/1.1/DTD/svg11.dtd" >
<svg xmlns="http://www.w3.org/2000/svg">
<metadata>Generated by IcoMoon</metadata>
<defs>
<font id="icomoon" horiz-adv-x="1024">
<font-face units-per-em="1024" ascent="960" descent="-64" />
<missing-glyph horiz-adv-x="1024" />
<glyph unicode="&#x20;" horiz-adv-x="512" d="" />
<glyph unicode="&#xe900;" glyph-name="dcube-1" d="M824.734 717.642l-267.52 144.213c-28.16 15.36-62.293 15.36-90.453 0l-267.52-144.213c-19.627-10.667-31.573-31.147-31.573-54.613 0-23.040 11.947-43.947 31.573-54.613l267.52-144.215c14.080-7.68 29.867-11.52 45.227-11.52s31.147 3.84 45.227 11.52l267.52 144.215c19.627 10.667 31.573 31.147 31.573 54.613s-11.947 43.947-31.573 54.613zM422.827 414.293l-249.173 124.587c-19.2 9.387-41.387 8.533-59.307-2.56-18.347-11.52-29.013-30.72-29.013-52.053v-235.093c0-40.533 22.613-77.227 58.88-95.573l248.747-124.587c8.533-4.267 17.92-6.4 27.307-6.4 11.093 0 22.187 2.987 32 8.96 18.347 11.093 29.013 30.72 29.013 52.053v235.093c0.427 40.96-22.187 77.653-58.453 95.573zM909.598 536.314c-18.347 11.093-40.529 12.373-59.302 2.56l-248.747-124.585c-36.267-18.347-58.88-54.613-58.88-95.573v-235.093c0-21.333 10.662-40.96 29.009-52.053 9.813-5.973 20.907-8.96 32-8.96 9.387 0 18.773 2.133 27.307 6.4l248.751 124.587c36.267 18.347 58.876 54.613 58.876 95.573v235.093c0 21.333-10.667 40.533-29.013 52.052z" />
<glyph unicode="&#xe901;" glyph-name="d-cube-scan" d="M166.627 793.373c-30.525-30.525-49.294-75.311-49.294-132.039v-85.333c0-17.673-14.327-32-32-32s-32 14.327-32 32v85.333c0 71.272 23.897 133.152 68.039 177.294s106.022 68.039 177.294 68.039h426.667c71.27 0 133.15-23.897 177.293-68.039s68.041-106.022 68.041-177.294v-85.333c0-17.673-14.327-32-32-32s-32 14.327-32 32v85.333c0 56.728-18.769 101.515-49.293 132.039s-75.311 49.294-132.041 49.294h-426.667c-56.728 0-101.515-18.769-132.039-49.294zM85.333 352c17.673 0 32-14.327 32-32v-85.333c0-56.73 18.769-101.517 49.294-132.041s75.311-49.293 132.039-49.293h426.667c56.73 0 101.517 18.769 132.041 49.293s49.293 75.311 49.293 132.041v85.333c0 17.673 14.327 32 32 32s32-14.327 32-32v-85.333c0-71.27-23.898-133.15-68.041-177.293s-106.022-68.041-177.293-68.041h-426.667c-71.272 0-133.152 23.898-177.294 68.041s-68.039 106.022-68.039 177.293v85.333c0 17.673 14.327 32 32 32zM258.149 580.951c8.858 15.293 28.436 20.509 43.729 11.651l210.088-121.69 208.38 120.828c15.292 8.865 34.871 3.658 43.738-11.631 8.862-15.289 3.657-34.869-11.631-43.735l-224.427-130.132c-9.924-5.756-22.17-5.756-32.094-0.009l-226.132 130.988c-15.293 8.858-20.509 28.437-11.651 43.729zM512 466.334c17.673 0 32-14.327 32-32v-232.533c0-17.673-14.327-32-32-32s-32 14.327-32 32v232.533c0 17.673 14.327 32 32 32zM580.902 719.562l136.367-75.855c21.811-11.983 39.654-31.776 51.951-52.703 12.322-20.966 20.894-46.149 20.894-70.88v-144.64c0-24.841-8.747-50.052-21.090-70.942-12.339-20.885-30.148-40.631-51.678-52.595-0.004-0.004 0.009 0 0 0l-136.649-76.011c-20.604-11.349-45.559-16.132-68.719-16.132-23.125 0-48.060 4.774-68.553 16.218-0.004 0.004 0.009-0.004 0 0l-136.317 75.827c-0.031 0.017-0.063 0.034-0.094 0.051-21.816 11.981-39.657 31.774-51.957 52.702-12.322 20.966-20.891 46.153-20.891 70.882v144.64c0 24.84 8.746 50.052 21.088 70.943 12.338 20.886 30.147 40.63 51.676 52.595l136.367 75.856c20.523 11.711 45.5 16.608 68.681 16.608 23.241 0 48.269-4.92 68.924-16.563zM511.979 672.125c-15.249 0-28.587-3.392-37.039-8.239l-0.363-0.209-136.535-75.945c-9.184-5.103-19.546-15.442-27.684-29.218s-12.191-27.818-12.191-38.391v-144.64c0-10.684 4.017-24.751 12.068-38.451 8.056-13.709 18.341-23.97 27.628-29.060l0.179-0.098 136.586-75.977c8.521-4.757 21.978-8.094 37.35-8.094 15.322 0 28.954 3.311 37.794 8.162 0.017 0.013 0.034 0.021 0.051 0.030l136.414 75.878c9.186 5.103 19.546 15.445 27.682 29.218 8.141 13.777 12.194 27.819 12.194 38.391v144.64c0 10.684-4.019 24.753-12.070 38.453-8.055 13.708-18.338 23.968-27.627 29.057l-0.179 0.098-136.725 76.054c-8.764 4.955-22.306 8.339-37.534 8.339z" />
<glyph unicode="&#xe902;" glyph-name="d-cube-scan-1" d="M938.667 544c-17.493 0-32 14.507-32 32v85.333c0 110.080-71.253 181.333-181.333 181.333h-426.667c-110.080 0-181.333-71.253-181.333-181.333v-85.333c0-17.493-14.507-32-32-32s-32 14.507-32 32v85.333c0 146.773 98.56 245.333 245.333 245.333h426.667c146.773 0 245.333-98.56 245.333-245.333v-85.333c0-17.493-14.507-32-32-32zM725.333-10.667h-426.667c-146.773 0-245.333 98.56-245.333 245.333v85.333c0 17.493 14.507 32 32 32s32-14.507 32-32v-85.333c0-110.080 71.253-181.333 181.333-181.333h426.667c110.080 0 181.333 71.253 181.333 181.333v85.333c0 17.493 14.507 32 32 32s32-14.507 32-32v-85.333c0-146.773-98.56-245.333-245.333-245.333zM699.742 609.708l-160.427 86.613c-17.067 8.96-37.12 8.96-54.187 0l-160.855-86.613c-11.52-6.4-18.773-18.773-18.773-32.427 0-14.080 7.253-26.453 18.773-32.853l160.428-86.615c8.533-4.693 17.92-6.827 27.307-6.827s18.773 2.133 27.307 6.827l160.427 86.615c11.52 6.4 18.773 18.773 18.773 32.853 0 13.653-7.253 26.027-18.773 32.427zM458.24 427.93l-149.333 74.667c-11.52 5.547-24.747 5.12-35.84-1.707-10.667-6.827-17.067-18.347-17.067-31.147v-141.227c0-24.32 13.653-46.507 35.413-57.173l149.333-74.667c5.12-2.56 10.667-3.84 16.64-3.84 6.827 0 13.227 1.707 19.2 5.547 11.093 6.827 17.493 18.347 17.493 31.147v141.227c-0.427 24.32-13.653 46.080-35.84 57.173zM750.588 500.89c-11.093 6.827-24.32 7.253-35.84 1.707l-149.333-74.667c-21.76-11.093-35.413-32.853-35.413-57.173v-141.227c0-12.8 6.4-24.32 17.493-31.147 5.973-3.84 12.373-5.547 19.2-5.547 5.547 0 11.093 1.28 16.64 3.84l149.333 74.667c21.76 11.093 35.413 32.853 35.413 57.173v141.227c0 12.8-6.4 24.32-17.493 31.147z" />
<glyph unicode="&#xe903;" glyph-name="d-rotate" d="M258.149 580.951c8.858 15.293 28.436 20.509 43.729 11.651l210.083-121.69 208.384 120.829c15.292 8.865 34.871 3.658 43.738-11.631 8.862-15.289 3.657-34.87-11.631-43.735l-224.431-130.133c-9.92-5.756-22.165-5.756-32.090-0.009l-226.132 130.988c-15.293 8.858-20.509 28.437-11.651 43.729zM512 466.334c17.673 0 32-14.327 32-32v-232.533c0-17.673-14.327-32-32-32s-32 14.327-32 32v232.533c0 17.673 14.327 32 32 32zM511.893 736.166c23.219 0.064 48.196-4.727 68.804-16.076l0.119-0.065 136.448-75.901c21.815-11.983 39.659-31.776 51.959-52.704 12.318-20.966 20.89-46.15 20.89-70.882v-145.067c0-24.836-8.747-50.048-21.090-70.942-12.339-20.89-30.153-40.64-51.691-52.604l-136.636-76.002c-20.604-11.349-45.559-16.132-68.719-16.132-23.125 0-48.060 4.774-68.553 16.218-0.004 0.004 0.009-0.004 0 0l-136.411 75.878c-21.815 11.985-39.657 31.778-51.957 52.706-12.322 20.966-20.892 46.148-20.892 70.878v144.64c0 24.841 8.747 50.054 21.089 70.945 12.339 20.885 30.147 40.63 51.676 52.595l136.367 75.854c20.523 11.709 45.478 16.597 68.595 16.661zM512.068 672.166c-15.313-0.043-28.672-3.443-37.129-8.292l-0.363-0.209-136.535-75.944c-9.184-5.103-19.546-15.442-27.684-29.219-8.138-13.775-12.192-27.815-12.192-38.392v-144.64c0-10.679 4.017-24.751 12.069-38.451 8.056-13.709 18.341-23.966 27.629-29.056l0.178-0.098 136.59-75.977c8.521-4.762 21.973-8.098 37.346-8.098 15.322 0 28.958 3.315 37.794 8.162 0.017 0.013 0.034 0.021 0.051 0.030l136.414 75.883c9.186 5.103 19.546 15.441 27.686 29.218 8.137 13.773 12.19 27.814 12.19 38.387v145.067c0 10.684-4.019 24.755-12.070 38.455-8.055 13.708-18.338 23.968-27.627 29.056l-0.179 0.098-136.414 75.881c-0.017 0.009-0.034 0.019-0.051 0.028-8.832 4.849-22.447 8.151-37.705 8.109zM938.667 352c17.673 0 32-14.327 32-32 0-182.793-147.874-330.667-330.667-330.667-11.529 0-22.165 6.199-27.844 16.235-5.683 10.031-5.525 22.345 0.405 32.23l44.8 74.667c9.092 15.155 28.749 20.066 43.904 10.974 15.151-9.092 20.066-28.749 10.974-43.904l-11.575-19.294c118.148 27.413 206.003 133.184 206.003 259.759 0 17.673 14.327 32 32 32zM323.337 835.757c-118.149-27.41-206.004-133.183-206.004-259.757 0-17.673-14.327-32-32-32s-32 14.327-32 32c0 182.793 147.874 330.667 330.667 330.667 11.529 0 22.166-6.201 27.846-16.233s5.525-22.345-0.407-32.23l-44.8-74.667c-9.093-15.154-28.749-20.069-43.904-10.976s-20.069 28.749-10.976 43.904l11.576 19.293z" />
<glyph unicode="&#xe904;" glyph-name="d-rotate-1" d="M640.009-10.675c-11.52 0-22.187 6.4-27.733 16.213-5.547 10.24-5.547 22.187 0.427 32.427l44.8 74.667c8.96 14.933 28.587 20.053 43.947 11.093s20.053-28.587 11.093-43.947l-11.52-19.2c117.76 27.733 206.080 133.547 206.080 259.84 0 17.493 14.507 32 32 32s32-14.507 32-32c-0.427-182.613-148.907-331.093-331.093-331.093zM85.333 544c-17.493 0-32 14.507-32 32 0 182.187 148.48 330.667 330.667 330.667 11.52 0 22.187-6.4 27.733-16.213 5.547-10.24 5.547-22.187-0.427-32.427l-44.8-74.667c-8.96-14.933-28.587-20.053-43.947-10.667-14.933 8.96-20.053 28.587-10.667 43.947l11.52 19.2c-118.187-27.733-206.080-133.547-206.080-259.84 0-17.493-14.507-32-32-32zM699.742 609.708l-160.427 86.613c-17.067 8.96-37.12 8.96-54.187 0l-160.855-86.613c-11.52-6.4-18.773-18.773-18.773-32.427 0-14.080 7.253-26.453 18.773-32.853l160.428-86.615c8.533-4.693 17.92-6.827 27.307-6.827s18.773 2.133 27.307 6.827l160.427 86.615c11.52 6.4 18.773 18.773 18.773 32.853 0 13.653-7.253 26.027-18.773 32.427zM458.24 427.93l-149.333 74.667c-11.52 5.547-24.747 5.12-35.84-1.707-10.667-6.827-17.067-18.347-17.067-31.147v-141.227c0-24.32 13.653-46.507 35.413-57.173l149.333-74.667c5.12-2.56 10.667-3.84 16.64-3.84 6.827 0 13.227 1.707 19.2 5.547 11.093 6.827 17.493 18.347 17.493 31.147v141.227c-0.427 24.32-13.653 46.080-35.84 57.173zM750.588 500.89c-11.093 6.827-24.32 7.253-35.84 1.707l-149.333-74.667c-21.76-11.093-35.413-32.853-35.413-57.173v-141.227c0-12.8 6.4-24.32 17.493-31.147 5.973-3.84 12.373-5.547 19.2-5.547 5.547 0 11.093 1.28 16.64 3.84l149.333 74.667c21.76 11.093 35.413 32.853 35.413 57.173v141.227c0 12.8-6.4 24.32-17.493 31.147z" />
<glyph unicode="&#xe905;" glyph-name="d-square" d="M132.039 827.961c56.937 56.937 142.138 78.706 251.961 78.706h256c109.824 0 195.025-21.769 251.959-78.706 56.939-56.937 78.707-142.138 78.707-251.961v-256c0-109.824-21.769-195.025-78.707-251.959-56.934-56.939-142.135-78.707-251.959-78.707h-256c-109.823 0-195.023 21.769-251.961 78.707-56.937 56.934-78.706 142.135-78.706 251.959v256c0 109.823 21.769 195.023 78.706 251.961zM177.294 782.706c-39.063-39.063-59.961-103.195-59.961-206.706v-256c0-103.509 20.898-167.642 59.961-206.707 39.063-39.061 103.195-59.959 206.706-59.959h256c103.509 0 167.642 20.898 206.707 59.959 39.061 39.066 59.959 103.198 59.959 206.707v256c0 103.511-20.898 167.643-59.959 206.706-39.066 39.063-103.198 59.961-206.707 59.961h-256c-103.511 0-167.643-20.898-206.706-59.961zM258.149 580.951c8.858 15.293 28.436 20.509 43.729 11.651l210.083-121.69 208.384 120.829c15.292 8.865 34.871 3.658 43.738-11.631 8.862-15.289 3.657-34.87-11.631-43.735l-224.431-130.133c-9.92-5.756-22.165-5.756-32.090-0.009l-226.132 130.988c-15.293 8.858-20.509 28.437-11.651 43.729zM512 466.334c17.673 0 32-14.327 32-32v-232.533c0-17.673-14.327-32-32-32s-32 14.327-32 32v232.533c0 17.673 14.327 32 32 32zM511.893 736.166c23.219 0.064 48.196-4.727 68.804-16.076l0.119-0.065 136.448-75.901c21.815-11.983 39.659-31.776 51.959-52.704 12.318-20.966 20.89-46.15 20.89-70.882v-145.067c0-24.836-8.747-50.048-21.090-70.942-12.339-20.89-30.153-40.64-51.691-52.604l-136.636-76.002c-20.604-11.349-45.559-16.132-68.719-16.132-23.125 0-48.060 4.774-68.553 16.218-0.004 0.004 0.009-0.004 0 0l-136.411 75.878c-21.815 11.985-39.657 31.778-51.957 52.706-12.322 20.966-20.892 46.148-20.892 70.878v144.64c0 24.841 8.747 50.054 21.089 70.945 12.339 20.885 30.147 40.63 51.676 52.595l136.367 75.854c20.523 11.709 45.478 16.597 68.595 16.661zM512.068 672.166c-15.313-0.043-28.672-3.443-37.129-8.292l-0.363-0.209-136.535-75.944c-9.184-5.103-19.546-15.442-27.684-29.219-8.138-13.775-12.192-27.815-12.192-38.392v-144.64c0-10.679 4.017-24.751 12.069-38.451 8.056-13.709 18.341-23.966 27.629-29.056l0.178-0.098 136.59-75.977c8.521-4.762 21.973-8.098 37.346-8.098 15.322 0 28.958 3.315 37.794 8.162 0.017 0.013 0.034 0.021 0.051 0.030l136.414 75.883c9.186 5.103 19.546 15.441 27.686 29.218 8.137 13.773 12.19 27.814 12.19 38.387v145.067c0 10.684-4.019 24.755-12.070 38.455-8.055 13.708-18.338 23.968-27.627 29.056l-0.179 0.098-136.414 75.881c-0.017 0.009-0.034 0.019-0.051 0.028-8.832 4.849-22.447 8.151-37.705 8.109z" />
<glyph unicode="&#xe906;" glyph-name="d-square-1" d="M690.773 860.583h-357.547c-155.307 0-247.893-93.013-247.893-248.32v-357.121c0-155.307 92.587-247.893 247.893-247.893h357.12c155.307 0 247.893 92.587 247.893 247.893v357.121c0.427 155.307-92.16 248.32-247.467 248.32zM493.653 229.542c0-12.8-6.4-24.32-17.493-31.147-5.973-3.84-12.373-5.547-19.2-5.547-5.547 0-11.093 1.28-16.64 3.84l-149.333 74.667c-21.333 11.093-34.987 32.853-34.987 57.173v141.227c0 12.8 6.4 24.32 17.493 31.147s24.32 7.253 35.84 1.707l149.333-74.667c21.76-11.093 35.413-32.853 35.413-57.173v-141.227h-0.427zM484.693 457.809l-160.427 86.614c-11.52 6.4-18.773 18.773-18.773 32.853 0 13.653 7.253 26.453 18.773 32.853l160.427 86.613c17.067 8.96 37.12 8.96 54.187 0l160.427-86.613c11.52-6.4 18.773-18.773 18.773-32.853s-7.253-26.453-18.773-32.853l-160.427-86.614c-8.533-4.693-17.92-6.827-27.307-6.827s-18.347 2.133-26.88 6.827zM768 328.529c0-24.32-13.653-46.507-35.413-57.173l-149.333-74.667c-5.12-2.56-10.667-3.84-16.64-3.84-6.827 0-13.227 1.707-19.2 5.547-11.093 6.827-17.493 18.347-17.493 31.147v141.227c0 24.32 13.653 46.507 35.413 57.173l149.333 74.667c11.52 5.547 24.747 5.12 35.84-1.707s17.493-18.347 17.493-31.147v-141.227z" />
<glyph unicode="&#xe907;" glyph-name="square" d="M133.968 399.381c-9.062-9.092-16.634-26.624-16.634-63.595v-202.667c0-36.715 7.556-54.14 16.601-63.185s26.47-16.602 63.186-16.602h202.667c36.971 0 54.502 7.573 63.595 16.636 9.062 9.037 16.619 26.432 16.619 63.151v69.547h-69.547c-43.069 0-81.565 8.444-108.474 35.435-26.885 26.961-35.312 65.536-35.312 108.779v69.12h-69.547c-36.718 0-54.115-7.556-63.152-16.619zM88.646 444.565c26.91 26.991 65.406 35.435 108.474 35.435h101.547c17.673 0 32-14.327 32-32v-101.12c0-36.971 7.573-54.502 16.634-63.595 9.037-9.062 26.435-16.619 63.153-16.619h101.547c17.673 0 32-14.327 32-32v-101.547c0-43.068-8.444-81.566-35.435-108.476-26.961-26.884-65.536-35.311-108.779-35.311h-202.667c-43.070 0-81.539 8.444-108.441 35.345s-35.346 65.37-35.346 108.442v202.667c0 43.243 8.427 81.818 35.312 108.779zM347.267 612.733c-9.045-9.045-16.601-26.47-16.601-63.186v-202.667c0-36.971 7.573-54.502 16.634-63.595 9.037-9.062 26.434-16.619 63.152-16.619h202.667c36.971 0 54.477 7.573 63.561 16.653 9.079 9.084 16.653 26.59 16.653 63.561v69.12h-69.547c-43.068 0-81.566 8.444-108.476 35.435-26.884 26.961-35.311 65.536-35.311 108.779v69.12h-69.547c-36.716 0-54.141-7.556-63.186-16.601zM302.013 657.987c26.902 26.902 65.37 35.346 108.441 35.346h101.547c17.673 0 32-14.327 32-32v-101.12c0-36.971 7.573-54.502 16.636-63.595 9.037-9.062 26.432-16.619 63.151-16.619h101.547c17.673 0 32-14.327 32-32v-101.12c0-43.243-8.427-81.843-35.401-108.813-26.97-26.974-65.57-35.401-108.813-35.401h-202.667c-43.069 0-81.565 8.444-108.474 35.435-26.885 26.961-35.312 65.536-35.312 108.779v202.667c0 43.070 8.444 81.539 35.346 108.441zM560.602 826.066c-9.045-9.045-16.602-26.47-16.602-63.186v-202.667c0-36.971 7.573-54.502 16.636-63.595 9.037-9.062 26.432-16.619 63.151-16.619h202.667c36.971 0 54.477 7.573 63.561 16.653 9.079 9.084 16.653 26.59 16.653 63.561v202.667c0 36.718-7.556 54.115-16.619 63.152-9.092 9.062-26.624 16.634-63.595 16.634h-202.667c-36.715 0-54.14-7.556-63.185-16.601zM515.345 871.321c26.901 26.902 65.37 35.346 108.442 35.346h202.667c43.243 0 81.818-8.427 108.779-35.312 26.991-26.91 35.435-65.406 35.435-108.474v-202.667c0-43.243-8.427-81.843-35.401-108.813-26.97-26.974-65.57-35.401-108.813-35.401h-202.667c-43.068 0-81.566 8.444-108.476 35.435-26.884 26.961-35.311 65.536-35.311 108.779v202.667c0 43.070 8.444 81.539 35.345 108.441z" />
<glyph unicode="&#xe908;" glyph-name="square-1" d="M512 170.667v-37.547c0-79.787-32-111.787-112.213-111.787h-202.667c-61.867 0-111.787 49.92-111.787 111.787v202.667c0 80.213 32 112.213 111.787 112.213h37.547v-149.333c0-70.827 57.173-128 128-128h149.333zM725.333 384v-37.12c0-61.867-50.347-112.213-112.213-112.213h-202.667c-79.787 0-111.787 32-111.787 112.213v202.667c0 61.867 49.92 111.787 111.787 111.787h37.547v-149.333c0-70.827 57.173-128 128-128h149.333zM938.667 762.88v-202.667c0-80.213-32-112.213-112.213-112.213h-202.667c-79.787 0-111.787 32-111.787 112.213v202.667c0 79.787 32 111.787 111.787 111.787h202.667c80.213 0 112.213-32 112.213-111.787z" />
<glyph unicode="&#xe909;" glyph-name="support" d="M256 842.25c-53.434 0-96-42.697-96-94.719v-465.496c0-52.019 42.566-94.716 96-94.716h32c41.927 0 82.959-16.41 113.012-46.426 0.023-0.021 0.046-0.047 0.069-0.068l72.814-71.966c0 0 0 0.004 0 0 20.813-20.54 54.955-20.548 75.772-0.013zM549.666 68.847l72.828 71.979c0.021 0.026 0.047 0.051 0.073 0.073 30.012 29.973 70.601 46.421 113.007 46.421h32.427c53.363 0 96 43.051 96 94.716v465.496c0 52.021-42.564 94.719-96 94.719h-512zM96 747.531c0 87.926 71.781 158.719 160 158.719h512c88.218 0 160-70.793 160-158.719v-465.496c0-87.428-71.71-158.716-160-158.716h-32.427c-25.826 0-50.061-9.98-67.827-27.75l-0.132-0.132-72.96-72.107c-45.743-45.158-119.979-45.171-165.722-0.013l-73.107 72.252c-17.728 17.728-42.371 27.75-67.825 27.75h-32c-88.219 0-160 70.793-160 158.716v465.496zM370.773 609.292c-22.005 0-40.107-18.101-40.107-40.109 0-17.673-14.327-32-32-32s-32 14.327-32 32c0 57.352 46.752 104.109 104.107 104.109 57.357 0 104.107-46.758 104.107-104.109 0-58.71-43.657-89.558-73.999-110.383-1.454-0.998-2.887-1.98-4.3-2.948-27.793-19.046-47.579-32.606-57.864-51.362h104.163c17.673 0 32-14.327 32-32s-14.327-32-32-32h-114.347c-34.886 0-68.050 33.783-55.186 73.446l0.047 0.145c15.249 46.263 55.195 73.161 83.469 92.198 2.719 1.835 5.331 3.593 7.802 5.286 32.913 22.59 46.215 36.115 46.215 57.617 0 22.008-18.101 40.109-40.107 40.109zM611.371 646.949c13.705 21.535 39.821 31.011 63.782 24.302 24.87-6.964 41.293-29.671 41.293-54.711v-150.181h8.96c17.673 0 32-14.327 32-32 0-17.677-14.327-32-32-32h-8.96v-29.444c0-17.673-14.327-32-32-32s-32 14.327-32 32v29.444h-83.627c-20.821 0-40.542 10.85-51.162 29.188-10.432 18.027-10.432 40.922 0 58.948l0.090 0.149c29.026 49.515 62.481 106.136 93.431 156l0.188 0.305 0.004-0.001zM652.446 466.359v125.26c-25.007-40.857-51.085-84.94-74.748-125.26h74.748z" />
<glyph unicode="&#xe90a;" glyph-name="support-1" d="M768 874.667h-512c-70.827 0-128-56.747-128-126.72v-465.493c0-69.973 57.173-126.72 128-126.72h32.427c34.133 0 66.56-13.227 90.453-37.12l72.96-72.107c33.28-32.853 87.467-32.853 120.747 0l72.96 72.107c23.893 23.893 56.747 37.12 90.453 37.12h32c70.827 0 128 56.747 128 126.72v465.493c0 69.973-57.173 126.72-128 126.72zM442.88 404.907c17.493 0 32-14.507 32-32s-14.507-32-32-32h-114.347c-18.773 0-36.267 8.96-47.36 24.32-10.667 14.507-13.227 32.427-8.107 49.493 14.933 45.653 51.627 70.4 84.053 92.587 34.133 23.040 53.333 37.547 53.333 62.293 0 22.187-17.92 40.107-40.107 40.107s-39.68-18.347-39.68-40.533c0-17.493-14.507-32-32-32s-32 14.507-32 32c0 57.173 46.507 104.107 104.107 104.107s104.107-46.507 104.107-104.107c0-60.16-45.227-90.88-81.493-115.627-22.613-15.36-43.947-29.867-54.613-49.067h104.107v0.427zM725.333 401.92h-8.96v-29.44c0-17.493-14.507-32-32-32s-32 14.507-32 32v29.44h-83.627c0 0 0 0-0.427 0-20.907 0-40.107 11.093-50.773 29.013-10.667 18.347-10.667 40.96 0 58.88 29.013 49.92 62.72 106.667 93.44 156.16 13.653 21.76 39.68 31.573 64 24.747 24.32-7.253 41.387-29.44 40.96-55.040v-150.187h9.387c17.493 0 32-14.507 32-32s-14.507-31.573-32-31.573zM652.335 465.937v125.438c-25.173-40.96-51.2-84.905-74.667-125.011h74.667v-0.427z" />
<glyph unicode="&#xe90b;" glyph-name="aave-aave" d="M512.009 693.333c12.646 0 24.107-7.447 29.239-19.004l170.667-384c7.181-16.149-0.094-35.059-16.243-42.24-16.149-7.177-35.059 0.098-42.24 16.247l-141.423 318.205-141.425-318.205c-7.178-16.149-26.089-23.424-42.239-16.247-16.15 7.181-23.423 26.091-16.245 42.24l170.665 384c5.137 11.556 16.597 19.004 29.244 19.004zM309.333 448c0 17.673 14.327 32 32 32h170.667c17.673 0 32-14.327 32-32s-14.327-32-32-32h-170.667c-17.673 0-32 14.327-32 32zM512 842.667c-217.968 0-394.667-176.698-394.667-394.667 0-217.967 176.698-394.667 394.667-394.667 217.967 0 394.667 176.7 394.667 394.667 0 217.968-176.7 394.667-394.667 394.667zM53.333 448c0 253.315 205.352 458.667 458.667 458.667s458.667-205.352 458.667-458.667c0-253.316-205.35-458.667-458.667-458.667-253.315 0-458.667 205.35-458.667 458.667z" />
<glyph unicode="&#xe90c;" glyph-name="aave-aave-1" d="M512 874.667c-235.52 0-426.667-191.147-426.667-426.667s191.147-426.667 426.667-426.667c235.52 0 426.667 191.147 426.667 426.667s-191.147 426.667-426.667 426.667zM695.467 247.893c-4.267-1.707-8.533-2.56-12.8-2.56-12.373 0-23.893 7.253-29.44 19.2l-141.227 317.867-45.653-102.4h45.653c17.493 0 32-14.507 32-32s-14.507-32-32-32h-73.813l-67.413-151.467c-7.253-16.213-26.453-23.467-42.24-16.213-16.213 7.253-23.467 26.027-16.213 42.24l55.893 125.867h-26.88c-17.493 0-32 14.507-32 32s14.507 32 32 32h55.039l86.188 194.133c10.24 23.040 48.213 23.040 58.453 0l170.667-384c7.253-16.213 0-35.413-16.213-42.667z" />
<glyph unicode="&#xe90d;" glyph-name="activity" d="M132.039 827.961c56.937 56.937 142.138 78.706 251.961 78.706h256c109.824 0 195.025-21.769 251.959-78.706 56.939-56.937 78.707-142.138 78.707-251.961v-256c0-109.824-21.769-195.025-78.707-251.959-56.934-56.939-142.135-78.707-251.959-78.707h-256c-109.823 0-195.023 21.769-251.961 78.707-56.937 56.934-78.706 142.135-78.706 251.959v256c0 109.823 21.769 195.023 78.706 251.961zM177.294 782.706c-39.063-39.063-59.961-103.195-59.961-206.706v-256c0-103.509 20.898-167.642 59.961-206.707 39.063-39.061 103.195-59.959 206.706-59.959h256c103.509 0 167.642 20.898 206.707 59.959 39.061 39.066 59.959 103.198 59.959 206.707v256c0 103.511-20.898 167.643-59.959 206.706-39.066 39.063-103.198 59.961-206.707 59.961h-256c-103.511 0-167.643-20.898-206.706-59.961zM730.782 579.54c13.965-10.828 16.512-30.928 5.683-44.896l-98.748-127.39c-25.382-32.098-72.179-37.952-104.828-12.727l-0.222 0.175-77.935 61.325c-4.813 3.657-11.529 2.748-15.185-1.971-0.004-0.004 0.004 0.009 0 0l-101.528-131.814c-10.784-13.999-30.877-16.606-44.878-5.824-14.001 10.786-16.61 30.878-5.825 44.881l101.577 131.878c25.34 32.794 72.324 38.72 105.045 13.436l0.226-0.175 77.931-61.325c4.868-3.695 11.725-2.743 15.356 1.758l98.432 126.984c10.829 13.968 30.929 16.514 44.898 5.686z" />
<glyph unicode="&#xe90e;" glyph-name="activity-1" d="M690.773 874.667h-357.547c-155.307 0-247.893-92.587-247.893-247.893v-357.12c0-155.733 92.587-248.32 247.893-248.32h357.12c155.307 0 247.893 92.587 247.893 247.893v357.547c0.427 155.307-92.16 247.893-247.467 247.893zM736.427 535.040l-98.56-127.147c-12.373-15.787-29.867-26.027-49.92-28.16-20.053-2.56-39.68 2.987-55.467 15.36l-78.080 61.44c-2.987 2.56-6.4 2.56-8.107 2.133-1.707 0-4.693-0.853-7.253-4.267l-101.547-131.84c-6.4-8.107-15.787-12.373-25.173-12.373-6.827 0-13.653 2.133-19.627 6.827-14.080 10.667-16.64 30.72-5.973 44.8l101.547 131.84c12.373 15.787 29.867 26.027 49.92 28.587 19.627 2.56 39.68-2.987 55.467-15.36l78.080-61.44c2.987-2.56 5.973-2.56 8.107-2.133 1.707 0 4.693 0.853 7.253 4.267l98.56 127.147c10.667 14.080 31.147 16.64 44.8 5.547 14.080-11.52 16.64-31.573 5.973-45.227z" />
<glyph unicode="&#xe90f;" glyph-name="add" d="M224 448c0 17.673 14.327 32 32 32h512c17.673 0 32-14.327 32-32s-14.327-32-32-32h-512c-17.673 0-32 14.327-32 32zM512 736c17.673 0 32-14.327 32-32v-512c0-17.673-14.327-32-32-32s-32 14.327-32 32v512c0 17.673 14.327 32 32 32z" />
<glyph unicode="&#xe910;" glyph-name="add-1" d="M690.773 874.667h-357.547c-155.307 0-247.893-92.587-247.893-247.893v-357.12c0-155.733 92.587-248.32 247.893-248.32h357.12c155.307 0 247.893 92.587 247.893 247.893v357.547c0.427 155.307-92.16 247.893-247.467 247.893zM768 416h-224v-224c0-17.493-14.507-32-32-32s-32 14.507-32 32v224h-224c-17.493 0-32 14.507-32 32s14.507 32 32 32h224v224c0 17.493 14.507 32 32 32s32-14.507 32-32v-224h224c17.493 0 32-14.507 32-32s-14.507-32-32-32z" />
<glyph unicode="&#xe911;" glyph-name="add-circle" d="M53.333 448c0 252.34 206.327 458.667 458.667 458.667s458.667-206.327 458.667-458.667c0-252.339-206.327-458.667-458.667-458.667s-458.667 206.327-458.667 458.667zM512 842.667c-216.994 0-394.667-177.673-394.667-394.667s177.673-394.667 394.667-394.667c216.994 0 394.667 177.673 394.667 394.667s-177.673 394.667-394.667 394.667zM309.333 448c0 17.673 14.327 32 32 32h341.333c17.673 0 32-14.327 32-32s-14.327-32-32-32h-341.333c-17.673 0-32 14.327-32 32zM512 650.667c17.673 0 32-14.327 32-32v-341.333c0-17.673-14.327-32-32-32s-32 14.327-32 32v341.333c0 17.673 14.327 32 32 32z" />
<glyph unicode="&#xe912;" glyph-name="add-circle-1" d="M512 874.667c-235.093 0-426.667-191.573-426.667-426.667s191.573-426.667 426.667-426.667c235.093 0 426.667 191.573 426.667 426.667s-191.573 426.667-426.667 426.667zM682.667 416h-138.667v-138.667c0-17.493-14.507-32-32-32s-32 14.507-32 32v138.667h-138.667c-17.493 0-32 14.507-32 32s14.507 32 32 32h138.667v138.667c0 17.493 14.507 32 32 32s32-14.507 32-32v-138.667h138.667c17.493 0 32-14.507 32-32s-14.507-32-32-32z" />
<glyph unicode="&#xe913;" glyph-name="additem" d="M144.494 815.506c-16.238-16.238-27.161-43.23-27.161-87.186v-304.64c0-43.955 10.923-70.946 27.161-87.185s43.23-27.162 87.186-27.162h109.653c17.673 0 32-14.327 32-32s-14.327-32-32-32h-109.653c-53.751 0-99.932 13.397-132.441 45.905s-45.906 78.69-45.906 132.442v304.64c0 53.751 13.397 99.932 45.906 132.441s78.69 45.906 132.441 45.906h194.987c53.751 0 99.934-13.397 132.442-45.906s45.905-78.69 45.905-132.441c0-17.673-14.327-32-32-32s-32 14.327-32 32c0 43.956-10.923 70.948-27.162 87.186s-43.23 27.161-87.185 27.161h-194.987c-43.956 0-70.948-10.923-87.186-27.161zM510.161 559.506c-16.239-16.238-27.162-43.231-27.162-87.186v-304.64c0-43.955 10.923-70.946 27.162-87.185s43.23-27.162 87.185-27.162h194.987c43.955 0 70.95 10.923 87.185 27.162 16.239 16.239 27.162 43.23 27.162 87.185v304.64c0 43.955-10.923 70.948-27.162 87.186-16.235 16.238-43.23 27.161-87.185 27.161h-194.987c-43.955 0-70.946-10.923-87.185-27.161zM464.905 604.761c32.512 32.509 78.69 45.906 132.442 45.906h194.987c53.751 0 99.934-13.397 132.442-45.906s45.905-78.689 45.905-132.441v-304.64c0-53.751-13.397-99.934-45.905-132.442s-78.69-45.905-132.442-45.905h-194.987c-53.751 0-99.93 13.397-132.442 45.905-32.508 32.508-45.905 78.69-45.905 132.442v304.64c0 53.751 13.397 99.932 45.905 132.441zM602.5 320c0 17.673 14.327 32 32 32h139.093c17.673 0 32-14.327 32-32s-14.327-32-32-32h-139.093c-17.673 0-32 14.327-32 32zM704 421.542c17.673 0 32-14.327 32-32v-139.093c0-17.673-14.327-32-32-32s-32 14.327-32 32v139.093c0 17.673 14.327 32 32 32z" />
<glyph unicode="&#xe914;" glyph-name="additem-1" d="M573.013 728.32v-57.173c-111.787-8.96-175.36-80.64-175.36-198.827v-194.987h-165.973c-97.707 0-146.347 48.64-146.347 146.347v304.64c0 97.707 48.64 146.347 146.347 146.347h194.987c97.707 0 146.347-48.64 146.347-146.347zM792.333 618.667h-194.987c-97.707 0-146.347-48.64-146.347-146.347v-304.64c0-97.707 48.64-146.347 146.347-146.347h194.987c97.707 0 146.347 48.64 146.347 146.347v304.64c0 97.707-48.64 146.347-146.347 146.347zM773.559 288h-37.547v-37.547c0-17.493-14.507-32-32-32s-32 14.507-32 32v37.547h-37.547c-17.493 0-32 14.507-32 32s14.507 32 32 32h37.547v37.547c0 17.493 14.507 32 32 32s32-14.507 32-32v-37.547h37.547c17.493 0 32-14.507 32-32s-14.507-32-32-32z" />
<glyph unicode="&#xe915;" glyph-name="add-square" d="M309.333 448c0 17.673 14.327 32 32 32h341.333c17.673 0 32-14.327 32-32s-14.327-32-32-32h-341.333c-17.673 0-32 14.327-32 32zM512 650.667c17.673 0 32-14.327 32-32v-341.333c0-17.673-14.327-32-32-32s-32 14.327-32 32v341.333c0 17.673 14.327 32 32 32zM132.039 827.961c56.937 56.937 142.138 78.706 251.961 78.706h256c109.824 0 195.025-21.769 251.959-78.706 56.939-56.937 78.707-142.138 78.707-251.961v-256c0-109.824-21.769-195.025-78.707-251.959-56.934-56.939-142.135-78.707-251.959-78.707h-256c-109.823 0-195.023 21.769-251.961 78.707-56.937 56.934-78.706 142.135-78.706 251.959v256c0 109.823 21.769 195.023 78.706 251.961zM177.294 782.706c-39.063-39.063-59.961-103.195-59.961-206.706v-256c0-103.509 20.898-167.642 59.961-206.707 39.063-39.061 103.195-59.959 206.706-59.959h256c103.509 0 167.642 20.898 206.707 59.959 39.061 39.066 59.959 103.198 59.959 206.707v256c0 103.511-20.898 167.643-59.959 206.706-39.066 39.063-103.198 59.961-206.707 59.961h-256c-103.511 0-167.643-20.898-206.706-59.961z" />
<glyph unicode="&#xe916;" glyph-name="add-square-1" d="M690.773 874.667h-357.547c-155.307 0-247.893-92.587-247.893-247.893v-357.12c0-155.733 92.587-248.32 247.893-248.32h357.12c155.307 0 247.893 92.587 247.893 247.893v357.547c0.427 155.307-92.16 247.893-247.467 247.893zM682.667 416h-138.667v-138.667c0-17.493-14.507-32-32-32s-32 14.507-32 32v138.667h-138.667c-17.493 0-32 14.507-32 32s14.507 32 32 32h138.667v138.667c0 17.493 14.507 32 32 32s32-14.507 32-32v-138.667h138.667c17.493 0 32-14.507 32-32s-14.507-32-32-32z" />
<glyph unicode="&#xe917;" glyph-name="airdrop" d="M481.229 621.632v0.001l-0.265-0.065c-44.395-10.955-80.287-46.848-91.241-91.244h-0.001l-0.063-0.265c-22.154-93.158 59.719-175.036 152.881-152.879l0.171 0.038c44.753 10.901 80.913 46.788 91.413 91.588 22.106 93.135-59.755 174.973-152.896 152.824zM496.171 559.401c46.724 11.017 86.793-29.105 75.674-75.846l-0.026-0.119c-4.877-20.851-22.421-38.677-44.173-44.011-46.703-11.046-86.767 29.001-75.755 75.699 5.286 21.211 23.066 38.99 44.279 44.277zM105 499.627c0 224.608 182.433 407.040 407.038 407.040 224.585 0 407.040-181.982 407.040-407.040 0-117.197-49.617-222.391-128.751-296.435-12.902-12.075-33.152-11.401-45.227 1.506-12.075 12.902-11.405 33.152 1.502 45.227 66.786 62.494 108.476 151.010 108.476 249.702 0 189.664-153.754 343.040-343.040 343.040-189.259 0-343.038-153.779-343.038-343.040 0-99.11 42.101-188.407 109.62-250.854 12.975-11.998 13.765-32.243 1.766-45.218s-32.246-13.764-45.22-1.766c-80.108 74.086-130.166 180.203-130.166 297.839zM512.073 701.875c-111.606 0-202.239-90.633-202.239-202.24 0-53.777 20.956-102.362 54.904-138.526 12.096-12.885 11.456-33.135-1.428-45.231s-33.136-11.456-45.232 1.429c-44.559 47.462-72.243 111.518-72.243 182.327 0 146.953 119.287 266.24 266.239 266.24s266.24-119.287 266.24-266.24c0-70.895-27.742-134.443-72.132-182.212-12.028-12.945-32.277-13.687-45.222-1.655-12.949 12.032-13.687 32.277-1.66 45.222 34.121 36.715 55.014 84.954 55.014 138.645 0 111.607-90.633 202.24-202.24 202.24zM609.203 269.111l61.286-76.186c0.013-0.013 0.026-0.030 0.034-0.043 66.138-81.737 7.253-203.136-97.434-203.136h-122.453c-105.050 0-162.806 121.139-97.557 202.987l0.088 0.111 61.405 76.331c49.833 62.37 145.039 62.63 194.631-0.064zM559.061 229.342c-23.808 30.174-70.127 30.409-94.511-0.141l-0.077-0.098-61.39-76.314c-31.967-40.179-3.538-99.042 47.553-99.042h122.453c51.447 0 79.603 59.46 47.663 98.901l-0.064 0.081-61.628 76.612z" />
<glyph unicode="&#xe918;" glyph-name="airdrop-1" d="M602.953 476.181c16.64 69.972-44.373 130.985-114.347 114.345-32.853-8.107-59.733-34.987-67.84-67.838-16.64-69.973 44.374-130.987 114.347-114.347 33.28 8.107 60.16 34.987 67.84 67.84zM256.893 193.28c-7.68 0-15.787 2.987-21.76 8.533-82.773 76.8-130.133 185.173-130.133 297.813 0 224.427 182.613 407.040 407.038 407.040 224.427 0 407.040-182.613 407.040-407.040 0-113.493-45.653-218.453-128.427-296.533-12.8-11.947-33.28-11.52-45.227 1.28s-11.52 33.28 1.28 45.227c69.973 65.707 108.373 154.027 108.373 249.6 0 189.013-154.027 343.040-343.040 343.040s-343.038-154.027-343.038-343.040c0-96.427 38.827-185.173 109.653-250.88 12.8-11.947 13.653-32.427 1.707-45.227-6.4-6.4-14.933-9.813-23.467-9.813zM682.645 307.217c-7.68 0-15.787 2.987-21.76 8.533-12.8 11.947-13.653 32.427-1.28 45.227 35.413 37.547 55.040 87.040 55.040 138.24 0 111.788-90.88 202.241-202.24 202.241-111.359 0-202.239-90.88-202.239-202.241 0-51.627 19.627-100.693 55.040-138.24 11.947-12.8 11.52-33.28-1.28-45.227-12.8-12.373-33.28-11.52-45.227 1.28-46.507 49.493-72.533 114.347-72.533 182.187 0 146.775 119.467 266.241 266.239 266.241 146.773 0 266.24-119.467 266.24-266.241 0-67.84-25.6-132.693-72.533-182.187-6.4-6.4-14.933-9.813-23.467-9.813zM439.42 249.173l-61.44-76.373c-48.64-61.013-5.12-151.467 72.533-151.467h122.453c78.080 0 121.6 90.453 72.533 151.040l-61.44 76.373c-36.693 46.933-107.52 46.933-144.64 0.427z" />
<glyph unicode="&#xe919;" glyph-name="airplane" d="M477.137 890.071c21.807 10.905 47.343 10.905 69.154 0l0.273-0.135c24.247-12.414 44.548-33.5 58.714-56.403 14.153-22.885 23.983-50.519 23.983-77.897v-121.057l231.846-99.956c20.318-8.57 36.783-24.446 48.030-41.598 11.29-17.207 19.217-38.575 19.217-60.378v-55.040c0-25.83-9.993-50.684-32.009-65.114-21.973-14.396-48.708-13.675-72.333-3.55l-0.077 0.034-194.675 84.053v-105.276c0.009-0.094 0.051-0.41 0.171-0.947 0.205-0.887 0.55-1.997 1.037-3.166 0.491-1.173 1.011-2.133 1.442-2.803 0.158-0.247 0.277-0.41 0.341-0.495 0.162-0.158 0.324-0.316 0.486-0.478l96.802-97.229c0.009-0.009-0.009 0.009 0 0 10.347-10.359 16.405-23.834 19.255-36.049 2.837-12.156 3.401-26.854-1.31-40.721l-18.85-56.986c-14.758-42.799-63.74-63.215-104.299-42.935-2.253 1.126-4.365 2.513-6.289 4.134l-99.639 83.819c-2.953 2.526-10.014 2.526-12.962 0l-0.226-0.192-99.414-83.627c-1.867-1.57-3.907-2.923-6.082-4.028-40.909-20.83-90.539-0.158-104.286 43.456l-18.67 56.435c-0.003 0.009 0.003-0.013 0 0-4.615 13.867-4.17 28.523-1.274 40.849 2.889 12.297 8.971 25.557 19.223 35.819 0.007 0.009-0.007-0.004 0 0l96.668 97.097c0.070 0.094 0.22 0.303 0.432 0.644 0.466 0.755 1.012 1.801 1.519 3.046 0.506 1.242 0.864 2.406 1.075 3.337 0.132 0.585 0.172 0.922 0.183 1.015v105.28l-194.755-84.087c-23.625-10.125-50.357-10.846-72.329 3.55-22.019 14.43-32.010 39.283-32.010 65.114v55.040c0 21.798 7.924 43.179 19.248 60.373 11.232 17.058 27.723 32.887 48.169 41.249l231.25 99.877v121.062c0 27.355 9.816 55.073 23.942 78.043 14.13 22.981 34.435 44.231 58.755 56.682l0.273 0.137zM505.869 832.884c-11.473-5.923-23.74-17.702-33.246-33.156-9.553-15.537-14.455-31.766-14.455-44.518v-128c0-11.599-4.262-21.78-9.092-29.139-4.817-7.332-12.407-15.221-22.882-19.805l-0.138-0.061-238.801-103.125c-5.821-2.351-13.081-8.183-19.055-17.259-5.957-9.045-8.699-18.381-8.699-25.173v-55.040c0-5.001 0.938-8.051 1.679-9.63 0.697-1.485 1.291-1.873 1.405-1.95 0.119-0.077 0.745-0.482 2.442-0.533 1.793-0.055 4.989 0.303 9.566 2.257 0.012 0.009-0.012-0.004 0 0l209.295 90.368c15.605 6.908 34.92 7.902 51.42-2.94 16.512-10.842 23.287-28.988 23.287-45.999v-121.6c0-10.223-2.705-20.279-5.995-28.348-3.268-8.013-8.388-17.19-15.71-24.529-0.017-0.017-0.030-0.030-0.043-0.043l-96.803-97.229c0.001-0.004-0.353-0.397-0.822-1.31-0.531-1.028-1.053-2.389-1.423-3.964s-0.514-3.046-0.496-4.25c0.017-1.109 0.166-1.668 0.181-1.728 0.002-0.004 0.002-0.004 0 0l0.023-0.068 18.96-57.31c1.527-4.924 6.675-7.889 11.889-6.592l95.567 80.393c26.88 22.925 69.124 22.925 96.009 0l95.398-80.252c5.039-1.114 10.722 1.583 12.753 7.266l18.773 56.751c0.021 0.094 0.107 0.533 0.119 1.365 0.017 1.173-0.124 2.671-0.503 4.309-0.384 1.638-0.926 3.059-1.472 4.13-0.435 0.853-0.747 1.229-0.772 1.263 0 0.004 0 0 0 0l-96.555 96.981c-7.646 7.36-12.915 16.55-16.265 24.567-3.435 8.23-6.148 18.351-6.148 28.595v121.6c0 16.734 6.485 34.965 23.189 45.884 16.529 10.799 35.644 9.574 50.82 3.349l0.542-0.222 209.412-90.423c0.013-0.004 0.030-0.013 0.043-0.017 4.574-1.954 7.77-2.313 9.562-2.257 1.698 0.051 2.321 0.457 2.441 0.533 0.115 0.077 0.708 0.465 1.404 1.95 0.742 1.579 1.681 4.629 1.681 9.63v55.040c0 6.784-2.739 16.141-8.734 25.28-5.999 9.143-13.372 15.202-19.43 17.745l-0.294 0.124-238.66 102.895c-10.479 4.583-18.069 12.473-22.882 19.805-4.834 7.359-9.092 17.539-9.092 29.139v128c0 12.729-4.89 28.829-14.417 44.236-9.476 15.321-21.743 27.052-33.284 33.011-3.729 1.822-7.962 1.822-11.691 0z" />
<glyph unicode="&#xe91a;" glyph-name="airplane-1" d="M855.407 506.47l-199.253 85.761-44.373 18.773c-6.827 3.413-12.8 12.373-12.8 20.053v130.56c0 40.96-30.293 89.6-66.987 108.373-12.8 6.4-28.16 6.4-40.96 0-36.267-18.773-66.56-67.84-66.56-108.8v-130.56c0-7.68-5.973-16.64-12.8-20.053l-243.2-104.535c-26.88-11.093-48.64-44.8-48.64-73.813v-56.32c0-36.267 27.307-54.187 61.013-39.68l213.76 92.16c16.64 7.253 30.293-1.707 30.293-20.053v-124.16c0-9.813-5.547-23.893-12.373-30.72l-98.987-99.413c-10.24-10.24-14.933-30.293-10.24-44.8l19.2-58.027c7.68-25.173 36.267-37.12 59.733-25.173l101.547 85.333c15.36 13.227 40.533 13.227 55.893 0l101.547-85.333c23.467-11.52 52.053 0 60.587 25.173l19.2 58.027c4.693 14.080 0 34.56-10.24 44.8l-98.987 99.413c-7.253 6.827-12.8 20.907-12.8 30.72v124.16c0 18.347 13.227 26.88 30.293 20.053l213.76-92.16c33.707-14.507 61.013 3.413 61.013 39.68v56.32c0 29.013-21.76 62.72-48.64 74.24z" />
<glyph unicode="&#xe91b;" glyph-name="airplane-square" d="M483.691 774.902c18.372 9.148 39.599 9.131 57.958-0.050l0.38-0.19c19.085-9.861 34.769-26.342 45.602-43.881 10.829-17.528 18.641-39.078 18.641-60.925v-81.379l161.485-69.676c16.708-7.091 29.854-20.002 38.69-33.515 8.853-13.547 15.292-30.63 15.292-48.388v-39.68c0-20.954-8.341-41.967-27.247-54.315-18.863-12.318-41.399-11.546-60.553-3.217-0.030 0.013-0.060 0.026-0.090 0.043l-128.004 55.019v-61.713c0 0 0 0.004 0 0 0.021-0.055 0.043-0.124 0.064-0.183 0.043-0.132 0.094-0.269 0.154-0.414 0.073-0.175 0.145-0.341 0.213-0.482l69.133-69.551c0.017-0.017 0.034-0.038 0.055-0.055 8.896-8.926 13.828-20.284 16.119-30.182 2.283-9.86 2.863-22.242-1.246-34.24l-13.602-40.802c-12.032-36.1-53.577-53.956-88.051-36.275-2.193 1.126-4.25 2.5-6.127 4.096l-70.165 59.661c-0.098 0.013-0.222 0.026-0.358 0.026-0.009 0 0.004 0 0 0l-70.703-59.746c-1.941-1.643-4.075-3.046-6.349-4.186-34.888-17.442-75.834 0.465-87.79 36.941l-13.573 40.717c-4.108 11.998-3.524 24.375-1.242 34.236 2.296 9.916 7.241 21.303 16.175 30.238l0.205 0.205 70.16 68.898c0.079 0.158 0.16 0.337 0.241 0.529 0.094 0.222 0.173 0.435 0.235 0.623v61.662l-128.163-55.091c-19.13-8.196-41.766-9.165-60.725 3.302-18.955 12.463-27.006 33.57-27.006 54.259v39.68c0 17.95 6.679 35.076 15.523 48.491 8.846 13.419 21.933 26.274 38.351 33.365l161.593 69.723v81.379c0 21.676 7.596 43.283 18.405 60.961 10.782 17.63 26.607 34.364 46.319 44.084zM512.546 717.738c-0.051-0.012-0.162-0.044-0.337-0.13l-0.188-0.094c-6.276-3.087-13.884-10.009-20.049-20.086-6.148-10.055-9.007-20.234-9.007-27.572v-88.32c0-11.6-4.258-21.78-9.092-29.139-4.813-7.332-12.403-15.221-22.882-19.807l-0.145-0.064-168.1-72.529c-2.356-1.020-6.552-4.164-10.289-9.835-3.742-5.675-4.957-10.735-4.957-13.265v-37.777l141.212 60.698c15.601 6.899 34.902 7.885 51.397-2.948 16.508-10.846 23.283-28.988 23.283-45.999v-78.933c0-9.173-2.5-17.754-5.205-24.205-2.684-6.409-6.942-13.999-13.124-20.186l-0.205-0.205-70.011-68.749c-0.039-0.124-0.079-0.269-0.117-0.435-0.041-0.179-0.070-0.337-0.090-0.474l12.605-37.815 64.526 54.541c22.797 19.149 57.783 18.637 80.371 0.393l0.623-0.516 64.073-54.481 12.484 37.453c-0.021 0.137-0.047 0.294-0.090 0.474-0.043 0.183-0.085 0.341-0.128 0.474l-68.924 69.342c-0.017 0.017-0.034 0.034-0.051 0.051-6.455 6.473-10.731 14.263-13.376 20.796-2.654 6.545-4.907 14.869-4.907 23.543v78.933c0 16.734 6.485 34.965 23.189 45.879 16.529 10.803 35.648 9.579 50.825 3.349l0.495-0.201 141.385-60.779v37.777c0 2.722-1.237 7.825-4.864 13.372-3.622 5.542-7.71 8.602-10.142 9.626l-0.23 0.098-167.927 72.457c-10.897 4.579-18.667 12.615-23.552 20.229-4.945 7.704-8.751 17.775-8.751 28.858v88.32c0 7.167-2.85 17.19-9.088 27.288-6.148 9.948-13.803 17.089-20.262 20.513-0.111 0.049-0.188 0.071-0.226 0.080l-0.077 0.012-0.073-0.012zM616.021 177.361c0 0 0 0.004 0 0zM132.039 827.961c56.937 56.937 142.138 78.706 251.961 78.706h256c109.824 0 195.025-21.769 251.959-78.706 56.939-56.937 78.707-142.138 78.707-251.961v-256c0-109.824-21.769-195.025-78.707-251.959-56.934-56.939-142.135-78.707-251.959-78.707h-256c-109.823 0-195.023 21.769-251.961 78.707-56.937 56.934-78.706 142.135-78.706 251.959v256c0 109.823 21.769 195.023 78.706 251.961zM177.294 782.706c-39.063-39.063-59.961-103.195-59.961-206.706v-256c0-103.509 20.898-167.642 59.961-206.707 39.063-39.061 103.195-59.959 206.706-59.959h256c103.509 0 167.642 20.898 206.707 59.959 39.061 39.066 59.959 103.198 59.959 206.707v256c0 103.511-20.898 167.643-59.959 206.706-39.066 39.063-103.198 59.961-206.707 59.961h-256c-103.511 0-167.643-20.898-206.706-59.961z" />
<glyph unicode="&#xe91c;" glyph-name="airplane-square-1" d="M690.773 874.667h-357.547c-155.307 0-247.893-92.587-247.893-247.893v-357.12c0-155.733 92.587-248.32 247.893-248.32h357.12c155.307 0 247.893 92.587 247.893 247.893v357.547c0.427 155.307-92.16 247.893-247.467 247.893zM789.76 397.227c0-25.6-19.627-38.4-43.093-28.16l-142.933 61.44c-16.64 6.827-29.867-1.707-29.867-19.627v-78.933c0-6.827 3.84-16.64 8.96-21.76l69.973-70.4c7.253-7.253 10.667-21.76 7.253-31.573l-13.653-40.96c-5.973-17.92-26.453-26.453-43.093-17.92l-71.253 60.587c-11.093 8.96-29.013 8.96-39.68 0l-71.68-60.587c-17.067-8.533-37.12 0-43.093 18.347l-13.653 40.96c-3.413 9.813 0 24.32 7.253 31.573l71.253 69.973c4.693 4.693 8.96 14.507 8.96 21.76v78.933c0 17.92-13.653 26.88-29.867 19.627l-142.933-61.44c-23.893-10.24-43.093 2.56-43.093 28.16v39.68c0 20.48 15.787 44.373 34.56 52.48l168.107 72.533c6.827 2.987 12.8 11.947 12.8 19.627v88.32c0 29.013 20.907 63.573 46.933 76.373 9.387 4.693 20.053 4.693 29.44 0 25.6-13.227 46.933-47.36 46.933-76.373v-88.32c0-7.68 5.547-16.64 12.8-19.627l168.107-72.533c19.2-8.107 34.56-32 34.56-52.48v-39.68z" />
<glyph unicode="&#xe91d;" glyph-name="airpod" d="M203.565 811.407c-29.597-19.488-47.82-52.701-55.238-118.663l-0.066-0.585h-0.005c-3.161-24.1-4.422-52.007-4.422-84.159v-320c0-32.179 1.266-59.887 4.788-84.151 0.054-0.367 0.101-0.734 0.141-1.105 7.206-65.655 25.41-98.748 54.991-118.187 32.469-21.338 85.487-31.223 175.173-31.223h266.24c89.907 0 142.921 9.886 175.386 31.223 29.598 19.447 47.804 52.561 55.215 118.285l0.060 0.508h0.004c3.17 24.576 4.429 52.518 4.429 84.651v320c0 32.61-0.875 60.079-4.352 83.649-0.055 0.396-0.107 0.792-0.154 1.19-7.211 65.897-25.429 99.089-55.014 118.567-32.457 21.372-85.457 31.26-175.147 31.26h-266.667c-89.912 0-142.907-9.89-175.362-31.26zM168.369 864.86c49.678 32.71 119.991 41.807 210.558 41.807h266.667c90.364 0 160.67-9.099 210.342-41.807 52.412-34.51 75.17-90.286 83.375-164.468 4.126-28.325 4.949-59.527 4.949-92.392v-320c0-33.476-1.293-64.329-4.924-92.587-8.397-74.099-31.159-129.856-83.635-164.343-49.668-32.636-119.962-41.737-210.534-41.737h-266.24c-90.368 0-160.656 9.101-210.32 41.737-52.422 34.449-75.195 90.125-83.401 164.143-4.094 28.489-5.372 59.477-5.372 92.787v320c0 33.438 1.29 64.311 4.927 92.188 8.395 74.266 31.142 130.125 83.609 164.672zM698.999 579.417c0 17.673 14.327 32 32 32h174.933c17.673 0 32-14.327 32-32s-14.327-32-32-32h-174.933c-17.673 0-32 14.327-32 32zM86.167 579.417c0 17.673 14.327 32 32 32h174.933c17.673 0 32-14.327 32-32s-14.327-32-32-32h-174.933c-17.673 0-32 14.327-32 32zM380.633 634.875c-30.54 0-55.467-24.926-55.467-55.467 0-15.549 6.225-29.076 15.916-38.505l0.612-0.611c9.882-10.15 23.851-16.35 38.939-16.35h262.827c30.541 0 55.467 24.926 55.467 55.466 0 14.92-6.076 28.51-16.35 38.513l-0.606 0.603c-9.882 10.15-23.851 16.35-38.938 16.35h-262.4zM261.167 579.408c0 65.887 53.58 119.467 119.467 119.467h262.4c32.546 0 62.822-13.303 84.493-35.397 21.973-21.548 35.401-51.354 35.401-84.070 0-65.885-53.581-119.466-119.467-119.466h-262.827c-32.547 0-62.821 13.299-84.492 35.392-21.699 21.274-34.975 51.139-34.975 84.074z" />
<glyph unicode="&#xe91e;" glyph-name="airpod-1" d="M643.413 476.164h-262.827c-27.307 0-54.187 11.093-73.387 30.72-5.973 5.973-11.093 12.373-15.36 19.627-7.68 12.799-21.333 20.906-36.267 20.906h-106.24c-23.467 0-42.667-19.199-42.667-42.666v-291.413c0-106.24 85.76-192 192-192h426.667c106.24 0 192 85.76 192 192v291.413c0 23.467-19.2 42.666-42.667 42.666h-106.667c-15.36 0-29.013-8.533-36.693-21.759-17.92-29.44-50.773-49.493-87.893-49.493zM725.333 874.667h-426.667c-106.24 0-192-85.76-192-192v-28.587c0-23.467 19.2-42.667 42.667-42.667h106.667c15.36 0 29.013 8.533 36.693 21.76 17.92 29.44 50.773 49.493 87.893 49.493h255.573c26.027 0 63.573-13.653 81.493-32 5.547-5.547 9.813-11.52 14.080-17.92 7.68-12.8 21.333-21.333 36.693-21.333h106.667c23.467 0 42.667 19.2 42.667 42.667v28.587c-0.427 106.24-86.187 192-192.427 192z" />
<glyph unicode="&#xe91f;" glyph-name="airpods" d="M246.613 842.667c-71.073 0-129.28-58.208-129.28-129.281s58.206-129.279 129.28-129.279h40.107c17.673 0 32-14.327 32-32v-321.707c0-26.701 21.94-48.64 48.64-48.64s48.64 21.939 48.64 48.64v523.519c0 48.534-39.933 88.748-88.746 88.748h-80.64zM53.333 713.385c0 106.42 86.86 193.281 193.28 193.281h80.64c84.307 0 152.746-69.015 152.746-152.748v-523.519c0-62.046-50.594-112.64-112.64-112.64s-112.64 50.594-112.64 112.64v289.707h-8.107c-106.42 0-193.28 86.859-193.28 193.279zM246.607 721.5c-4.514 0-8.107-3.593-8.107-8.107 0-4.511 3.591-8.104 8.107-8.104 17.673 0 32-14.327 32-32s-14.327-32-32-32c-39.857 0-72.107 32.242-72.107 72.104 0 39.86 32.247 72.107 72.107 72.107 17.673 0 32-14.327 32-32s-14.327-32-32-32zM544 753.919c0 83.732 68.437 152.748 152.747 152.748h80.64c106.419 0 193.28-86.862 193.28-193.281s-86.861-193.279-193.28-193.279h-8.107v-289.707c0-62.046-50.594-112.64-112.64-112.64s-112.64 50.594-112.64 112.64v523.519zM696.747 842.667c-48.815 0-88.747-40.213-88.747-88.748v-523.519c0-26.701 21.939-48.64 48.64-48.64s48.64 21.939 48.64 48.64v321.707c0 17.673 14.327 32 32 32h40.107c71.074 0 129.28 58.205 129.28 129.279s-58.206 129.281-129.28 129.281h-80.64zM745.335 753.5c0 17.673 14.323 32 32 32 39.859 0 72.107-32.247 72.107-72.107 0-39.862-32.252-72.104-72.107-72.104-17.677 0-32 14.327-32 32s14.323 32 32 32c4.514 0 8.107 3.593 8.107 8.104 0 4.514-3.597 8.107-8.107 8.107-17.677 0-32 14.327-32 32zM362.667 181.333c17.673 0 32-14.327 32-32v-128c0-17.673-14.327-32-32-32s-32 14.327-32 32v128c0 17.673 14.327 32 32 32zM661.333 181.333c17.673 0 32-14.327 32-32v-128c0-17.673-14.327-32-32-32s-32 14.327-32 32v128c0 17.673 14.327 32 32 32z" />
<glyph unicode="&#xe920;" glyph-name="airpods-1" d="M327.253 874.667h-80.64c-44.373 0-84.48-17.92-113.92-47.36s-47.36-69.547-47.36-113.92c0-88.747 72.533-161.28 161.28-161.28h40.107v-322.133c0-31.147 17.92-58.027 43.947-71.253 10.667-5.973 23.467-9.387 36.693-9.387 9.387 0 18.773 1.707 27.307 5.12 31.147 11.093 53.333 40.533 53.333 75.52v523.947c0 66.133-54.613 120.747-120.747 120.747zM246.613 705.28c17.493 0 32-14.507 32-32s-14.507-32-32-32c-39.68 0-72.107 32.427-72.107 72.533s32.427 72.107 72.107 72.107c17.493 0 32-14.507 32-32s-14.507-32-32-32c-4.693 0-8.107-3.84-8.107-8.107s3.413-8.533 8.107-8.533zM891.307 827.307c-29.44 29.44-69.547 47.36-113.92 47.36h-80.64c-66.56 0-120.747-54.613-120.747-120.747v-523.947c0-34.987 22.187-64.427 53.333-75.52 8.533-3.413 17.92-5.12 27.307-5.12 13.227 0 26.027 3.413 36.693 9.387 26.027 13.227 43.947 40.107 43.947 71.253v322.133h40.107c88.747 0 161.28 72.533 161.28 161.28 0 44.373-17.92 84.48-47.36 113.92zM777.387 641.28c-17.493 0-32 14.507-32 32s14.507 32 32 32c4.693 0 8.107 3.84 8.107 8.533s-3.84 8.107-8.107 8.107c-17.493 0-32 14.507-32 32s14.507 32 32 32c39.68 0 72.107-32.427 72.107-72.107s-32-72.533-72.107-72.533zM394.667 154.441v-133.12c0-17.493-14.507-32-32-32s-32 14.507-32 32v137.387c10.667-5.973 23.467-9.387 36.693-9.387 9.387 0 18.773 1.707 27.307 5.12zM693.333 158.707v-137.387c0-17.493-14.507-32-32-32s-32 14.507-32 32v133.12c8.533-3.413 17.92-5.12 27.307-5.12 13.227 0 26.027 3.413 36.693 9.387z" />
<glyph unicode="&#xe921;" glyph-name="alarm" d="M53.333 21.333c0 17.673 14.327 32 32 32h853.333c17.673 0 32-14.327 32-32s-14.327-32-32-32h-853.333c-17.673 0-32 14.327-32 32zM96 320c0 229.726 186.274 416 416 416s416-186.274 416-416v-298.667c0-17.673-14.327-32-32-32h-768c-17.673 0-32 14.327-32 32v298.667zM512 672c-194.38 0-352-157.619-352-352v-266.667h704v266.667c0 194.381-157.619 352-352 352zM512 906.667c17.673 0 32-14.327 32-32v-42.667c0-17.673-14.327-32-32-32s-32 14.327-32 32v42.667c0 17.673 14.327 32 32 32zM148.039 811.961c12.497 12.497 32.758 12.497 45.255 0l42.667-42.667c12.497-12.497 12.497-32.758 0-45.255s-32.758-12.497-45.255 0l-42.667 42.667c-12.497 12.497-12.497 32.758 0 45.255zM875.959 811.961c12.497-12.497 12.497-32.758 0-45.255l-42.667-42.667c-12.497-12.497-32.755-12.497-45.252 0s-12.497 32.758 0 45.255l42.667 42.667c12.497 12.497 32.755 12.497 45.252 0z" />
<glyph unicode="&#xe922;" glyph-name="alarm-1" d="M938.667 53.333h-42.667v266.667c0 212.053-171.947 384-384 384s-384-171.947-384-384v-266.667h-42.667c-17.493 0-32-14.507-32-32s14.507-32 32-32h853.333c17.493 0 32 14.507 32 32s-14.507 32-32 32zM512 800c-17.493 0-32 14.507-32 32v42.667c0 17.493 14.507 32 32 32s32-14.507 32-32v-42.667c0-17.493-14.507-32-32-32zM213.393 714.648c-8.107 0-16.213 2.987-22.613 9.387l-42.667 42.667c-12.373 12.373-12.373 32.853 0 45.227s32.853 12.373 45.227 0l42.667-42.667c12.373-12.373 12.373-32.853 0-45.227-6.4-6.4-14.507-9.387-22.613-9.387zM810.726 714.648c-8.107 0-16.213 2.987-22.613 9.387-12.373 12.373-12.373 32.853 0 45.227l42.667 42.667c12.373 12.373 32.853 12.373 45.227 0s12.373-32.853 0-45.227l-42.667-42.667c-6.4-6.4-14.507-9.387-22.613-9.387z" />
<glyph unicode="&#xe923;" glyph-name="align-bottom" d="M587.375 749.174c24.243 22.809 58.231 29.493 94.938 29.493h44.373c36.706 0 70.694-6.684 94.942-29.493 24.734-23.27 32.205-56.486 32.205-92.107v-503.467c0-17.673-14.327-32-32-32s-32 14.327-32 32v503.467c0 28.379-6.182 39.963-12.058 45.493-6.37 5.991-19.955 12.107-51.089 12.107h-44.373c-31.134 0-44.719-6.116-51.085-12.107-5.879-5.53-12.062-17.114-12.062-45.493v-503.467c0-17.673-14.327-32-32-32s-32 14.327-32 32v503.467c0 35.621 7.471 68.837 32.209 92.107zM268.56 489.225c-5.877-5.53-12.060-17.114-12.060-45.491v-290.133c0-17.673-14.327-32-32-32s-32 14.327-32 32v290.133c0 35.622 7.471 68.838 32.207 92.107 24.245 22.809 58.233 29.493 94.94 29.493h44.373c36.707 0 70.694-6.684 94.941-29.493 24.734-23.269 32.205-56.485 32.205-92.107v-290.133c0-17.673-14.327-32-32-32s-32 14.327-32 32v290.133c0 28.378-6.182 39.962-12.059 45.491-6.368 5.995-19.953 12.109-51.087 12.109h-44.373c-31.133 0-44.719-6.114-51.087-12.109zM53.333 149.333c0 17.673 14.327 32 32 32h853.333c17.673 0 32-14.327 32-32s-14.327-32-32-32h-853.333c-17.673 0-32 14.327-32 32z" />
<glyph unicode="&#xe924;" glyph-name="align-bottom-1" d="M342.187 762.875h-44.373c-67.84 0-95.147-25.6-95.147-90.453v-506.879h234.667v506.879c-0.427 64.853-27.733 90.453-95.147 90.453zM704.853 549.542h-44.373c-67.84 0-95.147-26.026-95.147-90.452v-293.547h234.667v293.547c0 64.427-27.733 90.452-95.147 90.452zM117.333 197.124h789.333c17.493 0 32-14.507 32-32s-14.507-32-32-32h-789.333c-17.493 0-32 14.507-32 32.427s14.507 31.573 32 31.573z" />
<glyph unicode="&#xe925;" glyph-name="align-horizontally" d="M246.726 723.893c-5.877-5.53-12.060-17.114-12.060-45.493v-460.8c0-28.378 6.182-39.962 12.060-45.491 6.368-5.995 19.954-12.109 51.087-12.109h44.373c31.133 0 44.719 6.114 51.087 12.109 5.877 5.53 12.060 17.114 12.060 45.491v460.8c0 28.379-6.182 39.963-12.060 45.493-6.368 5.991-19.953 12.107-51.087 12.107h-44.373c-31.133 0-44.719-6.116-51.087-12.107zM202.874 770.507c24.245 22.809 58.233 29.493 94.94 29.493h44.373c36.707 0 70.695-6.684 94.942-29.493 24.734-23.27 32.205-56.486 32.205-92.107v-460.8c0-35.622-7.471-68.838-32.205-92.109-24.247-22.805-58.235-29.491-94.942-29.491h-44.373c-36.707 0-70.695 6.686-94.94 29.491-24.736 23.27-32.207 56.486-32.207 92.109v460.8c0 35.621 7.471 68.837 32.207 92.107zM609.395 638.56c-5.879-5.53-12.062-17.114-12.062-45.493v-290.133c0-28.378 6.182-39.962 12.062-45.491 6.366-5.995 19.951-12.109 51.085-12.109h44.373c31.134 0 44.719 6.114 51.085 12.109 5.879 5.53 12.062 17.114 12.062 45.491v290.133c0 28.379-6.182 39.963-12.062 45.493-6.366 5.991-19.951 12.107-51.085 12.107h-44.373c-31.134 0-44.719-6.116-51.085-12.107zM565.538 685.174c24.247 22.809 58.236 29.493 94.942 29.493h44.373c36.706 0 70.694-6.684 94.942-29.493 24.734-23.27 32.205-56.486 32.205-92.107v-290.133c0-35.622-7.471-68.838-32.205-92.109-24.247-22.805-58.236-29.491-94.942-29.491h-44.373c-36.706 0-70.694 6.686-94.942 29.491-24.734 23.27-32.205 56.486-32.205 92.109v290.133c0 35.621 7.471 68.837 32.205 92.107zM53.333 448c0 17.673 14.327 32 32 32h102.4c17.673 0 32-14.327 32-32s-14.327-32-32-32h-102.4c-17.673 0-32 14.327-32 32zM437.333 448c0 17.673 14.327 32 32 32h85.333c17.673 0 32-14.327 32-32s-14.327-32-32-32h-85.333c-17.673 0-32 14.327-32 32zM791.834 448c0 17.673 14.327 32 32 32h114.773c17.673 0 32-14.327 32-32s-14.327-32-32-32h-114.773c-17.673 0-32 14.327-32 32z" />
<glyph unicode="&#xe926;" glyph-name="align-horizontally-1" d="M202.667 217.6v460.8c0 64 27.307 89.6 95.147 89.6h44.373c67.84 0 95.147-25.6 95.147-89.6v-460.8c0-64-27.307-89.6-95.147-89.6h-44.373c-67.84 0-95.147 25.6-95.147 89.6zM202.667 416h-85.333c-17.493 0-32 14.507-32 32s14.507 32 32 32h85.333v-64zM565.333 480h-128v-64h128v64zM906.667 416h-106.667v64h106.667c17.493 0 32-14.507 32-32s-14.507-32-32-32zM565.333 302.933v290.133c0 64 27.307 89.6 95.147 89.6h44.373c67.84 0 95.147-25.6 95.147-89.6v-290.133c0-64-27.307-89.6-95.147-89.6h-44.373c-67.84 0-95.147 25.6-95.147 89.6z" />
<glyph unicode="&#xe927;" glyph-name="align-left" d="M185.667 373.333c0 17.673 14.327 32 32 32h503.468c35.618 0 68.834-7.471 92.105-32.205 22.81-24.247 29.495-58.236 29.495-94.942v-44.373c0-36.706-6.686-70.694-29.495-94.942-23.27-24.734-56.486-32.205-92.105-32.205h-503.468c-17.673 0-32 14.327-32 32s14.327 32 32 32h503.468c28.378 0 39.962 6.182 45.491 12.062 5.99 6.366 12.109 19.951 12.109 51.085v44.373c0 31.134-6.118 44.719-12.109 51.085-5.53 5.879-17.114 12.062-45.491 12.062h-503.468c-17.673 0-32 14.327-32 32zM185.667 736c0 17.673 14.327 32 32 32h290.135c35.618 0 68.834-7.471 92.105-32.207 22.81-24.245 29.495-58.233 29.495-94.94v-44.373c0-36.707-6.686-70.694-29.495-94.942-23.27-24.734-56.486-32.205-92.105-32.205h-290.135c-17.673 0-32 14.327-32 32s14.327 32 32 32h290.135c28.378 0 39.962 6.182 45.491 12.060 5.99 6.368 12.109 19.953 12.109 51.087v44.373c0 31.133-6.118 44.719-12.109 51.087-5.53 5.877-17.114 12.060-45.491 12.060h-290.135c-17.673 0-32 14.327-32 32zM213.333 907.084c17.673 0 32-14.327 32-32v-853.332c0-17.673-14.327-32-32-32s-32 14.327-32 32v853.332c0 17.673 14.327 32 32 32z" />
<glyph unicode="&#xe928;" glyph-name="align-left-1" d="M826.833 278.187v-44.373c0-67.84-25.6-95.147-90.453-95.147h-506.88v234.667h506.88c64.853 0 90.453-27.307 90.453-95.147zM613.5 640.853v-44.373c0-67.84-26.027-95.147-90.453-95.147h-293.546v234.667h293.546c64.427 0 90.453-27.307 90.453-95.147zM229.509 21.333c-17.493 0-32 14.507-32 32v789.333c-0.427 17.92 14.080 32 32 32s32-14.507 32-32v-789.333c-0.427-17.493-14.507-32-32-32z" />
<glyph unicode="&#xe929;" glyph-name="align-right" d="M257.44 329.271c-5.991-6.366-12.107-19.951-12.107-51.085v-44.373c0-31.134 6.116-44.719 12.107-51.085 5.53-5.879 17.114-12.062 45.493-12.062h503.467c17.673 0 32-14.327 32-32s-14.327-32-32-32h-503.467c-35.621 0-68.837 7.471-92.107 32.205-22.809 24.247-29.493 58.236-29.493 94.942v44.373c0 36.706 6.684 70.694 29.493 94.942 23.27 24.734 56.486 32.205 92.107 32.205h503.467c17.673 0 32-14.327 32-32s-14.327-32-32-32h-503.467c-28.379 0-39.963-6.182-45.493-12.062zM424.16 735.793c23.269 24.736 56.485 32.207 92.107 32.207h290.133c17.673 0 32-14.327 32-32s-14.327-32-32-32h-290.133c-28.378 0-39.962-6.182-45.491-12.060-5.995-6.368-12.109-19.954-12.109-51.087v-44.373c0-31.133 6.114-44.719 12.109-51.087 5.53-5.877 17.114-12.060 45.491-12.060h290.133c17.673 0 32-14.327 32-32s-14.327-32-32-32h-290.133c-35.622 0-68.838 7.471-92.107 32.205-22.809 24.247-29.493 58.235-29.493 94.942v44.373c0 36.707 6.684 70.695 29.493 94.94zM810.667 907.084c17.673 0 32-14.327 32-32v-853.332c0-17.673-14.327-32-32-32s-32 14.327-32 32v853.332c0 17.673 14.327 32 32 32z" />
<glyph unicode="&#xe92a;" glyph-name="align-right-1" d="M197.167 278.187v-44.373c0-67.84 25.6-95.147 90.453-95.147h506.88v234.667h-506.88c-64.853 0-90.453-27.307-90.453-95.147zM410.5 640.853v-44.373c0-67.84 26.027-95.147 90.454-95.147h293.547v234.667h-293.547c-64.427 0-90.454-27.307-90.454-95.147zM794.5 21.333c-17.493 0-32 14.507-32 32v789.333c0 17.493 14.507 32 32 32s32-14.507 32-32v-789.333c0.427-17.493-14.080-32-32-32z" />
<glyph unicode="&#xe92b;" glyph-name="align-top" d="M587.166 774.417c17.673 0 32-14.327 32-32v-503.466c0-28.378 6.182-39.966 12.062-45.491 6.366-5.995 19.951-12.109 51.085-12.109h44.373c31.134 0 44.719 6.114 51.089 12.109 5.875 5.525 12.058 17.114 12.058 45.491v503.466c0 17.673 14.327 32 32 32s32-14.327 32-32v-503.466c0-35.622-7.471-68.838-32.205-92.109-24.247-22.81-58.236-29.491-94.942-29.491h-44.373c-36.706 0-70.694 6.682-94.938 29.491-24.738 23.27-32.209 56.486-32.209 92.109v503.466c0 17.673 14.327 32 32 32zM224.5 774.417c17.673 0 32-14.327 32-32v-290.133c0-28.378 6.182-39.966 12.060-45.491 6.368-5.995 19.953-12.109 51.087-12.109h44.373c31.133 0 44.718 6.114 51.087 12.109 5.878 5.525 12.059 17.114 12.059 45.491v290.133c0 17.673 14.327 32 32 32s32-14.327 32-32v-290.133c0-35.622-7.471-68.838-32.205-92.109-24.247-22.81-58.234-29.491-94.941-29.491h-44.373c-36.707 0-70.695 6.682-94.94 29.491-24.736 23.27-32.207 56.486-32.207 92.109v290.133c0 17.673 14.327 32 32 32zM53.333 746.667c0 17.673 14.327 32 32 32h853.333c17.673 0 32-14.327 32-32s-14.327-32-32-32h-853.333c-17.673 0-32 14.327-32 32z" />
<glyph unicode="&#xe92c;" glyph-name="align-top-1" d="M681.813 133.124h44.373c67.84 0 95.147 25.6 95.147 90.453v506.881h-234.667v-506.881c0.427-64.853 27.733-90.453 95.147-90.453zM319.147 346.458h44.373c67.84 0 95.147 26.027 95.147 90.453v293.548h-234.667v-293.548c0.427-64.427 27.733-90.453 95.147-90.453zM906.667 698.885h-789.333c-17.493 0-32 14.080-32 31.573s14.507 32 32 32h789.333c17.493 0 32-14.507 32-32s-14.507-31.573-32-31.573z" />
<glyph unicode="&#xe92d;" glyph-name="align-vertically" d="M236.107 329.271c-5.991-6.366-12.107-19.951-12.107-51.085v-44.373c0-31.134 6.116-44.719 12.107-51.085 5.53-5.879 17.114-12.062 45.493-12.062h460.8c28.378 0 39.962 6.182 45.491 12.062 5.995 6.366 12.109 19.951 12.109 51.085v44.373c0 31.134-6.114 44.719-12.109 51.085-5.53 5.879-17.114 12.062-45.491 12.062h-460.8c-28.379 0-39.963-6.182-45.493-12.062zM189.493 373.129c23.27 24.734 56.486 32.205 92.107 32.205h460.8c35.622 0 68.838-7.471 92.109-32.205 22.805-24.247 29.491-58.236 29.491-94.942v-44.373c0-36.706-6.686-70.694-29.491-94.942-23.27-24.734-56.486-32.205-92.109-32.205h-460.8c-35.621 0-68.837 7.471-92.107 32.205-22.809 24.247-29.493 58.236-29.493 94.942v44.373c0 36.706 6.684 70.694 29.493 94.942zM321.44 691.94c-5.991-6.368-12.107-19.954-12.107-51.087v-44.373c0-31.133 6.116-44.719 12.107-51.087 5.53-5.877 17.114-12.060 45.493-12.060h290.133c28.378 0 39.962 6.182 45.491 12.060 5.995 6.368 12.109 19.953 12.109 51.087v44.373c0 31.133-6.114 44.719-12.109 51.087-5.53 5.877-17.114 12.060-45.491 12.060h-290.133c-28.379 0-39.963-6.182-45.493-12.060zM274.826 735.793c23.27 24.736 56.486 32.207 92.107 32.207h290.133c35.622 0 68.838-7.471 92.109-32.207 22.805-24.245 29.491-58.233 29.491-94.94v-44.373c0-36.707-6.686-70.694-29.491-94.942-23.27-24.734-56.486-32.205-92.109-32.205h-290.133c-35.621 0-68.837 7.471-92.107 32.205-22.809 24.247-29.493 58.235-29.493 94.942v44.373c0 36.707 6.684 70.695 29.493 94.94zM512 155.75c17.673 0 32-14.327 32-32v-102.4c0-17.673-14.327-32-32-32s-32 14.327-32 32v102.4c0 17.673 14.327 32 32 32zM512 522.667c17.673 0 32-14.327 32-32v-85.333c0-17.673-14.327-32-32-32s-32 14.327-32 32v85.333c0 17.673 14.327 32 32 32zM512 906.667c17.673 0 32-14.327 32-32v-114.773c0-17.673-14.327-32-32-32s-32 14.327-32 32v114.773c0 17.673 14.327 32 32 32z" />
<glyph unicode="&#xe92e;" glyph-name="align-vertically-1" d="M742.4 138.667h-460.8c-64 0-89.6 27.307-89.6 95.147v44.373c0 67.84 25.6 95.147 89.6 95.147h460.8c64 0 89.6-27.307 89.6-95.147v-44.373c0-67.84-25.6-95.147-89.6-95.147zM544 138.667v-85.333c0-17.493-14.507-32-32-32s-32 14.507-32 32v85.333h64zM544 501.333h-64v-128h64v128zM544 842.667v-106.667h-64v106.667c0 17.493 14.507 32 32 32s32-14.507 32-32zM657.067 501.333h-290.133c-64 0-89.6 27.307-89.6 95.147v44.373c0 67.84 25.6 95.147 89.6 95.147h290.133c64 0 89.6-27.307 89.6-95.147v-44.373c0-67.84-25.6-95.147-89.6-95.147z" />
<glyph unicode="&#xe92f;" glyph-name="android" d="M352 192c0 17.673 14.327 32 32 32h85.333c17.673 0 32-14.327 32-32v-128c0-36.89-29.35-74.667-74.667-74.667s-74.667 37.777-74.667 74.667v128zM416 160v-96c0-2.33 1.032-5.257 3.127-7.501 1.796-1.924 4.153-3.166 7.54-3.166s5.743 1.242 7.539 3.166c2.095 2.244 3.127 5.171 3.127 7.501v96h-21.333zM522.667 192c0 17.673 14.327 32 32 32h85.333c17.673 0 32-14.327 32-32v-128c0-36.89-29.35-74.667-74.667-74.667s-74.667 37.777-74.667 74.667v128zM586.667 160v-96c0-2.33 1.033-5.257 3.127-7.501 1.796-1.924 4.151-3.166 7.539-3.166s5.743 1.242 7.539 3.166c2.095 2.244 3.127 5.171 3.127 7.501v96h-21.333zM384 544c-29.26 0-53.333-24.073-53.333-53.333v-213.333c0-29.261 24.073-53.333 53.333-53.333h256c29.261 0 53.333 24.073 53.333 53.333v213.333c0 29.261-24.073 53.333-53.333 53.333h-256zM266.667 490.667c0 64.606 52.727 117.333 117.333 117.333h256c64.606 0 117.333-52.727 117.333-117.333v-213.333c0-64.606-52.727-117.333-117.333-117.333h-256c-64.606 0-117.333 52.727-117.333 117.333v213.333zM162.361 498.974c-0.658-0.657-2.361-2.778-2.361-8.307v-170.667c0-5.53 1.703-7.65 2.361-8.307s2.778-2.359 8.306-2.359c5.528 0 7.648 1.702 8.306 2.359s2.361 2.778 2.361 8.307v170.667c0 5.53-1.703 7.65-2.361 8.307s-2.778 2.359-8.306 2.359c-5.528 0-7.648-1.702-8.306-2.359zM117.106 544.227c14.275 14.275 33.489 21.106 53.561 21.106s39.285-6.831 53.561-21.106c14.275-14.278 21.106-33.49 21.106-53.561v-170.667c0-20.070-6.831-39.283-21.106-53.559s-33.489-21.107-53.561-21.107c-20.072 0-39.285 6.831-53.561 21.107s-21.106 33.489-21.106 53.559v170.667c0 20.070 6.831 39.283 21.106 53.561zM845.026 498.974c-0.657-0.657-2.359-2.778-2.359-8.307v-170.667c0-5.53 1.702-7.65 2.359-8.307s2.778-2.359 8.307-2.359c5.53 0 7.65 1.702 8.307 2.359s2.359 2.778 2.359 8.307v170.667c0 5.53-1.702 7.65-2.359 8.307s-2.778 2.359-8.307 2.359c-5.53 0-7.65-1.702-8.307-2.359zM799.774 544.227c14.276 14.275 33.489 21.106 53.559 21.106s39.283-6.831 53.559-21.106c14.276-14.278 21.107-33.49 21.107-53.561v-170.667c0-20.070-6.831-39.283-21.107-53.559s-33.489-21.107-53.559-21.107c-20.070 0-39.283 6.831-53.559 21.107s-21.107 33.489-21.107 53.559v170.667c0 20.070 6.831 39.283 21.107 53.561zM437.333 192c0 17.673 14.327 32 32 32h85.333c17.673 0 32-14.327 32-32s-14.327-32-32-32h-85.333c-17.673 0-32 14.327-32 32zM309.333 734.476c0 116.129 89.083 214.857 202.667 214.857s202.667-98.728 202.667-214.857c0-56.701-42.15-105.143-100.267-105.143h-204.8c-58.117 0-100.267 48.442-100.267 105.143zM512 885.333c-74.15 0-138.667-65.844-138.667-150.857 0-25.585 17.583-41.143 36.267-41.143h204.8c18.684 0 36.267 15.558 36.267 41.143 0 85.013-64.516 150.857-138.667 150.857z" />
<glyph unicode="&#xe930;" glyph-name="android-1" d="M469.333 192v-128c0-23.467-19.2-42.667-42.667-42.667s-42.667 19.2-42.667 42.667v128h85.333zM640 192v-128c0-23.467-19.2-42.667-42.667-42.667s-42.667 19.2-42.667 42.667v128h85.333zM725.333 490.667v-213.333c0-46.933-38.4-85.333-85.333-85.333h-256c-46.933 0-85.333 38.4-85.333 85.333v213.333c0 46.933 38.4 85.333 85.333 85.333h256c46.933 0 85.333-38.4 85.333-85.333zM213.333 490.667v-170.667c0-23.467-19.2-42.667-42.667-42.667s-42.667 19.2-42.667 42.667v170.667c0 23.467 19.2 42.667 42.667 42.667s42.667-19.2 42.667-42.667zM896 490.667v-170.667c0-23.467-19.2-42.667-42.667-42.667s-42.667 19.2-42.667 42.667v170.667c0 23.467 19.2 42.667 42.667 42.667s42.667-19.2 42.667-42.667zM409.599 635.733h204.801c37.547 0 68.267 30.72 68.267 68.267 0 94.293-76.373 170.667-170.667 170.667s-170.667-76.373-170.667-170.667c0-37.547 30.719-68.267 68.266-68.267z" />
<glyph unicode="&#xe931;" glyph-name="ankr-ankr" d="M497.886 903.352c8.939 4.419 19.426 4.419 28.361 0l379.733-187.733c10.914-5.394 17.822-16.513 17.822-28.686v-145.067c0-17.673-14.327-32-32-32-17.677 0-32 14.327-32 32v125.19l-347.733 171.913-347.735-171.913v-125.19c0-17.673-14.327-32-32-32s-32 14.327-32 32v145.067c0 12.173 6.906 23.291 17.818 28.686l379.734 187.733zM132.333 386.125c17.673 0 32-14.327 32-32v-125.188l347.735-171.913 347.733 171.913v125.188c0 17.673 14.323 32 32 32 17.673 0 32-14.327 32-32v-145.067c0-12.173-6.908-23.292-17.822-28.685l-379.733-187.733c-8.934-4.42-19.422-4.42-28.361 0l-379.734 187.733c-10.912 5.393-17.818 16.512-17.818 28.685v145.067c0 17.673 14.327 32 32 32zM512 292.25c17.673 0 32-14.327 32-32v-238.933c0-17.673-14.327-32-32-32s-32 14.327-32 32v238.933c0 17.673 14.327 32 32 32zM512.068 603.75c-86.011 0-155.735-69.724-155.735-155.733 0-86.007 69.724-155.733 155.735-155.733 86.007 0 155.733 69.726 155.733 155.733 0 86.009-69.726 155.733-155.733 155.733zM292.333 448.017c0 121.355 98.378 219.733 219.735 219.733 121.353 0 219.733-98.378 219.733-219.733 0-121.357-98.381-219.733-219.733-219.733-121.357 0-219.735 98.377-219.735 219.733z" />
<glyph unicode="&#xe932;" glyph-name="ankr-ankr-1" d="M891.281 510.707c-17.493 0-32 14.507-32 31.999v122.453l-347.307 173.654-347.308-173.654v-122.453c0-17.492-14.507-31.999-32-31.999s-32 14.507-32 31.999v142.080c0 11.947 6.828 23.040 17.922 28.587l379.306 189.44c8.96 4.693 19.627 4.693 28.587 0l379.307-189.44c10.667-5.547 17.92-16.64 17.92-28.587v-142.080c-0.427-17.492-14.933-31.999-32.427-31.999zM511.974-10.688c-5.12 0-9.813 1.28-14.080 3.413l-379.306 189.44c-10.667 5.547-17.922 16.64-17.922 28.587v142.080c0 17.493 14.507 32 32 32s32-14.507 32-32v-122.453l347.308-173.653 347.307 173.653v122.453c0 17.493 14.507 32 32 32s32-14.507 32-32v-142.080c0-11.947-6.827-23.040-17.92-28.587l-379.307-189.44c-4.267-2.133-8.96-3.413-14.080-3.413zM701.38 448.017c0 104.535-84.907 189.441-189.44 189.441s-189.44-84.907-189.44-189.441c0-93.867 68.695-171.52 158.294-186.453 0-1.28-0.427-2.133-0.427-2.987v-237.227c0-17.493 14.507-32 32-32s32 14.507 32 32v237.227c0 1.28-0.427 2.133-0.427 2.987 89.173 14.933 157.44 92.587 157.44 186.453z" />
<glyph unicode="&#xe933;" glyph-name="apple" d="M653.82 906.506c16.593 1.66 31.684-9.707 34.667-26.117 10.846-59.649-16.354-115.683-44.284-152.924-29.897-39.859-86.549-77.985-147.964-72.402-14.323 1.302-26.014 11.997-28.587 26.144-10.944 60.188 16.892 112.133 44.284 148.658 0.482 0.643 0.99 1.267 1.519 1.872 34.654 39.605 88.806 69.614 140.365 74.769zM562.394 790.473c-16.533-22.246-28.608-45.293-32.115-68.675 24.009 6.835 47.454 23.703 62.724 44.066 15.492 20.658 27.529 44.335 32.004 67.953-23.202-9.266-45.999-24.681-62.613-43.344zM186.122 533.214c43.861 72.736 117.785 113.184 189.28 113.184 35.091 0 64.905-9.943 89.711-18.217 0.495-0.164 0.986-0.328 1.476-0.491 7.125-2.376 13.094-4.497 18.308-6.351 16.597-5.9 25.532-9.074 39.838-9.074 16.119 0 29.065 2.997 47.851 10.511 0.58 0.233 1.169 0.448 1.762 0.647l0.525 0.175c25.95 8.65 55.599 18.534 99.196 18.534 65.54 0 130.492-30.342 174.933-89.6 5.649-7.533 7.697-17.173 5.589-26.353-2.103-9.178-8.145-16.964-16.512-21.282-104.781-54.080-91.499-206.455 18.206-248.922 8.171-3.162 14.686-9.532 18.027-17.63 3.345-8.094 3.221-17.207-0.333-25.207-17.958-40.405-31.659-63.198-53.308-97.83-0.397-0.636-0.815-1.259-1.259-1.865-1.856-2.556-3.78-5.218-5.764-7.97-15.377-21.303-34.436-47.706-56.427-69.171-24.951-24.358-58.197-46.967-100.22-46.967-30.528 0-48.111 5.47-68.565 15.573-1.643 0.661-3.23 1.306-4.774 1.937-17.771 7.236-30.345 12.356-58.927 12.356-27.721 0-44.305-6.537-64.917-14.78-1.34-0.538-2.718-0.981-4.122-1.335-2.803-0.7-5.683-1.638-9.455-2.957-0.708-0.247-1.476-0.521-2.295-0.811-3.162-1.118-7.066-2.5-10.999-3.729-10.839-3.388-23.711-6.255-40.478-6.255-39.048 0-70.964 19.627-96.136 42.402-25.061 22.673-47.106 51.874-65.998 77.065-0.401 0.533-0.786 1.079-1.153 1.643-47.735 72.738-73.973 153.51-80.844 227.947-6.789 73.545 5.102 144.209 37.784 194.825zM375.402 582.398c-47.812 0-101.717-27.637-134.694-82.596-0.197-0.329-0.4-0.653-0.609-0.977-22.545-34.684-34.022-89.664-28.032-154.551 5.903-63.949 28.56-134.315 70.080-197.892 19.283-25.698 37.592-49.515 57.124-67.187 19.628-17.758 36.778-25.86 53.197-25.86 8.833 0 15.161 1.395 21.389 3.341 2.684 0.841 5.094 1.69 8.055 2.739 0.99 0.35 2.042 0.721 3.185 1.122 3.664 1.28 7.999 2.752 12.82 4.053 21.662 8.657 47.407 18.611 86.818 18.611 41.186 0 63.211-8.981 83.046-17.075 1.894-0.772 3.767-1.536 5.636-2.283 0.823-0.329 1.634-0.691 2.428-1.088 13.154-6.579 21.086-9.421 41.156-9.421 17.711 0 35.665 9.387 55.514 28.762 17.749 17.331 33.399 38.959 49.199 60.796 1.758 2.428 3.516 4.855 5.278 7.283 14.694 23.522 24.922 40.354 35.371 61.099-116.369 69.222-138.782 240.96-28.075 328.404-29.316 25.86-64.943 38.455-100.22 38.455-32.529 0-53.854-6.887-78.609-15.135-23.518-9.334-44.51-14.732-70.724-14.732-26.381 0-47.599 7.679-66.108 14.378-4.224 1.529-8.307 3.007-12.279 4.331-26.099 8.7-47.002 15.424-70.947 15.424z" />
<glyph unicode="&#xe934;" glyph-name="apple-1" d="M814.938 142.507c25.173 38.4 34.56 58.027 53.76 101.12-141.653 53.76-164.267 255.573-24.32 332.8-42.667 53.76-102.827 84.906-159.573 84.906-40.96 0-69.12-10.667-94.293-20.48-21.333-8.107-40.533-15.36-64.427-15.36-25.6 0-48.213 8.106-72.107 16.64-26.027 9.387-53.335 19.2-87.468 19.2-63.573 0-131.413-38.827-174.506-105.387-60.587-93.867-49.92-269.653 47.787-419.84 34.987-53.76 81.92-113.92 142.933-114.773 25.6-0.427 42.24 7.253 60.588 15.36 20.907 9.387 43.52 19.627 83.2 19.627 39.68 0.427 61.867-10.24 82.773-19.627 17.92-8.107 34.133-15.787 59.307-15.36 61.867 0.853 111.36 67.413 146.347 121.173zM675.857 874.667c6.827-46.933-12.373-93.44-37.547-125.867-26.88-34.987-73.813-62.293-119.040-60.586-8.107 45.227 12.8 91.734 38.4 122.88 28.587 34.133 76.8 60.586 118.187 63.573z" />
<glyph unicode="&#xe935;" glyph-name="aquarius" d="M181.333 576c0 182.793 147.874 330.667 330.667 330.667s330.667-147.874 330.667-330.667c0-182.793-147.874-330.667-330.667-330.667-17.673 0-32 14.327-32 32s14.327 32 32 32c147.447 0 266.667 119.219 266.667 266.667s-119.219 266.667-266.667 266.667c-147.447 0-266.667-119.22-266.667-266.667 0-17.673-14.327-32-32-32s-32 14.327-32 32zM512 309.333c17.673 0 32-14.327 32-32v-256c0-17.673-14.327-32-32-32s-32 14.327-32 32v256c0 17.673 14.327 32 32 32zM352 149.333c0 17.673 14.327 32 32 32h256c17.673 0 32-14.327 32-32s-14.327-32-32-32h-256c-17.673 0-32 14.327-32 32z" />
<glyph unicode="&#xe936;" glyph-name="aquarius-1" d="M842.667 576c0 182.187-148.48 330.667-330.667 330.667s-330.667-148.48-330.667-330.667c0-17.493 14.507-32 32-32s32 14.507 32 32c0 147.2 119.467 266.667 266.667 266.667s266.667-119.467 266.667-266.667c0-147.2-119.467-266.667-266.667-266.667-17.493 0-32-14.507-32-32v-256c0-17.493 14.507-32 32-32s32 14.507 32 32v225.707c167.253 16.213 298.667 157.44 298.667 328.96zM640 117.333h-256c-17.493 0-32 14.507-32 32s14.507 32 32 32h256c17.493 0 32-14.507 32-32s-14.507-32-32-32z" />
<glyph unicode="&#xe937;" glyph-name="archive" d="M192 555.958c17.673 0 32-14.327 32-31.999v-374.613c0-42.103 5.816-63.198 16.082-74.927 9.341-10.679 29.344-21.073 79.918-21.073h384c50.573 0 70.575 10.394 79.919 21.073 10.266 11.729 16.081 32.823 16.081 74.927v374.613c0 17.672 14.327 31.999 32 31.999s32-14.327 32-31.999v-374.613c0-43.234-4.851-86.14-31.919-117.073-27.989-31.991-71.987-42.927-128.081-42.927h-384c-56.093 0-100.090 10.935-128.082 42.927-27.067 30.933-31.918 73.839-31.918 117.073v374.613c0 17.672 14.327 31.999 32 31.999zM139.961 820.039c-13.216-13.216-22.627-35.639-22.627-73.373v-85.333c0-37.734 9.412-60.157 22.627-73.373s35.639-22.627 73.373-22.627h597.333c37.734 0 60.156 9.412 73.374 22.627 13.214 13.216 22.626 35.639 22.626 73.373v85.333c0 37.734-9.412 60.157-22.626 73.373-13.218 13.216-35.639 22.627-73.374 22.627h-597.333c-37.734 0-60.157-9.412-73.373-22.627zM94.706 865.294c29.451 29.451 71.028 41.373 118.627 41.373h597.333c47.599 0 89.178-11.921 118.626-41.373 29.453-29.451 41.374-71.028 41.374-118.627v-85.333c0-47.599-11.921-89.176-41.374-118.627-29.449-29.452-71.027-41.373-118.626-41.373h-597.333c-47.599 0-89.176 11.921-118.627 41.373s-41.373 71.028-41.373 118.627v85.333c0 47.599 11.921 89.176 41.373 118.627zM402.333 362.667c0 17.673 14.327 32 32 32h155.307c17.673 0 32-14.327 32-32s-14.327-32-32-32h-155.307c-17.674 0-32 14.327-32 32z" />
<glyph unicode="&#xe938;" glyph-name="archive-1" d="M938.667 746.667v-85.333c0-78.080-35.413-120.32-106.667-126.72-6.827-0.853-14.080-1.28-21.333-1.28h-597.333c-7.253 0-14.507 0.427-21.333 1.28-71.253 6.4-106.667 48.64-106.667 126.72v85.333c0 85.333 42.667 128 128 128h597.333c85.333 0 128-42.667 128-128zM234.667 480c-23.467 0-42.667-19.2-42.667-42.667v-288c0-85.333 21.333-128 128-128h384c106.667 0 128 42.667 128 128v288c0 23.467-19.2 42.667-42.667 42.667h-554.667zM589.653 288h-155.307c-17.493 0-32 14.507-32 32s14.507 32 32 32h155.307c17.493 0 32-14.507 32-32s-14.507-32-32-32z" />
<glyph unicode="&#xe939;" glyph-name="archive-2" d="M132.039 827.961c56.937 56.937 142.138 78.706 251.961 78.706h256c109.824 0 195.025-21.769 251.959-78.706 56.939-56.937 78.707-142.138 78.707-251.961v-256c0-109.824-21.769-195.025-78.707-251.959-56.934-56.939-142.135-78.707-251.959-78.707h-256c-109.823 0-195.023 21.769-251.961 78.707-56.937 56.934-78.706 142.135-78.706 251.959v256c0 109.823 21.769 195.023 78.706 251.961zM177.294 782.706c-39.063-39.063-59.961-103.195-59.961-206.706v-256c0-103.509 20.898-167.642 59.961-206.707 39.063-39.061 103.195-59.959 206.706-59.959h256c103.509 0 167.642 20.898 206.707 59.959 39.061 39.066 59.959 103.198 59.959 206.707v256c0 103.511-20.898 167.643-59.959 206.706-39.066 39.063-103.198 59.961-206.707 59.961h-256c-103.511 0-167.643-20.898-206.706-59.961zM341.333 682.667h341.333c29.261 0 53.333-24.073 53.333-53.333v-183.539c-16.017 8.226-34.15 12.873-53.333 12.873h-341.333c-19.181 0-37.315-4.646-53.333-12.873v183.539c0 29.26 24.073 53.333 53.333 53.333zM800 341.333v288c0 64.606-52.727 117.333-117.333 117.333h-341.333c-64.606 0-117.333-52.727-117.333-117.333v-288c0-17.673 14.327-32 32-32s32 14.327 32 32c0 29.261 24.073 53.333 53.333 53.333h341.333c29.261 0 53.333-24.073 53.333-53.333 0-17.673 14.327-32 32-32s32 14.327 32 32zM736 288c0 17.673 14.327 32 32 32h42.667c17.673 0 32-14.327 32-32s-14.327-32-32-32h-42.667c-17.673 0-32 14.327-32 32zM181.333 288c0 17.673 14.327 32 32 32h42.667c17.673 0 32-14.327 32-32s-14.327-32-32-32h-42.667c-17.673 0-32 14.327-32 32zM224 490.667c0 64.606 52.727 117.333 117.333 117.333h341.333c64.606 0 117.333-52.727 117.333-117.333v-128c0-17.673-14.327-32-32-32s-32 14.327-32 32v128c0 29.261-24.073 53.333-53.333 53.333h-341.333c-29.26 0-53.333-24.073-53.333-53.333v-128c0-17.673-14.327-32-32-32s-32 14.327-32 32v128zM341.333 394.667c-29.26 0-53.333-24.073-53.333-53.333v-21.333h117.333c17.673 0 32-14.327 32-32 0-41.207 33.459-74.667 74.667-74.667s74.667 33.459 74.667 74.667c0 17.673 14.327 32 32 32h117.333v21.333c0 29.261-24.073 53.333-53.333 53.333h-341.333zM224 341.333c0 64.606 52.727 117.333 117.333 117.333h341.333c64.606 0 117.333-52.727 117.333-117.333v-53.333c0-17.673-14.327-32-32-32h-121.050c-14.455-61.137-69.41-106.667-134.95-106.667s-120.497 45.53-134.952 106.667h-121.048c-17.673 0-32 14.327-32 32v53.333z" />
<glyph unicode="&#xe93a;" glyph-name="archive-3" d="M682.667 544h-341.333c-29.44 0-53.333-23.893-53.333-53.333v-44.8c1.28 0.427 2.133 0.853 3.413 1.28 5.12 2.56 10.667 4.267 16.213 5.973 2.56 0.853 5.12 1.707 8.107 2.56 8.533 1.707 17.067 2.987 26.027 2.987h341.333c8.96 0 17.493-1.28 26.027-2.987 2.56-0.427 5.12-1.707 8.107-2.56 5.547-1.707 11.093-3.413 16.213-5.973 1.28-0.427 2.56-0.853 3.413-1.28v44.8c-0.853 29.44-24.747 53.333-54.187 53.333zM682.667 394.667h-341.333c-29.44 0-53.333-23.893-53.333-53.333v-21.333h117.333c17.493 0 32-14.507 32-32 0-40.96 33.707-74.667 74.667-74.667s74.667 33.707 74.667 74.667c0 17.493 14.507 32 32 32h117.333v21.333c0 29.44-23.893 53.333-53.333 53.333zM682.667 682.667h-341.333c-29.44 0-53.333-23.893-53.333-53.333v-34.56c16.213 8.107 34.133 13.227 53.333 13.227h341.333c19.2 0 37.12-5.12 53.333-13.227v34.56c0 29.44-23.893 53.333-53.333 53.333zM690.773 874.667h-357.547c-155.307 0-247.893-92.587-247.893-247.893v-357.12c0-155.733 92.587-248.32 247.893-248.32h357.12c155.307 0 247.893 92.587 247.893 247.893v357.547c0.427 155.307-92.16 247.893-247.467 247.893zM810.667 256h-163.84c-14.507-61.013-69.547-106.667-134.827-106.667s-120.32 45.653-134.827 106.667h-163.84c-17.493 0-32 14.507-32 32s14.507 32 32 32h10.667v309.333c0 64.853 52.48 117.333 117.333 117.333h341.333c64.853 0 117.333-52.48 117.333-117.333v-309.333h10.667c17.493 0 32-14.507 32-32s-14.507-32-32-32z" />
<glyph unicode="&#xe93b;" glyph-name="archive-4" d="M364.617 584.843c6.062 16.601 24.434 25.144 41.035 19.082 68.857-25.145 143.857-25.145 212.712 0 16.602 6.062 34.974-2.481 41.037-19.082s-2.483-34.973-19.081-41.035c-83.038-30.323-173.585-30.323-256.621 0-16.601 6.062-25.144 24.434-19.082 41.035zM109.667 709.973c0 108.073 88.087 196.693 196.693 196.693h411.306c108.638 0 196.612-88.617 197.12-196.542v-601.324c0-45.598-16.512-85.939-51.708-106.667-35.2-20.732-78.46-15.586-118.281 6.583zM744.798 8.717l-208.495 115.785c-4.847 2.756-13.423 5.099-23.915 5.099-10.466 0-19.273-2.33-24.469-5.227l-208.364-115.712c-39.863-21.948-83.067-26.889-118.181-6.208-35.139 20.693-51.708 60.877-51.708 106.347v601.173zM306.36 842.667c-73.153 0-132.693-59.859-132.693-132.693v-601.173c0-31.33 10.951-45.76 20.186-51.2 9.254-5.449 27.26-8.043 54.782 7.095 0.017 0.013 0.034 0.021 0.050 0.030l208.062 115.541c0.009 0.004-0.009-0.004 0 0 16.99 9.468 37.205 13.333 55.642 13.333 18.355 0 38.511-3.823 55.394-13.376l208.085-115.554c27.584-15.364 45.572-12.787 54.733-7.39 9.178 5.406 20.186 19.891 20.186 51.52v601.088c-0.38 72.952-60.019 132.779-133.12 132.779h-411.306z" />
<glyph unicode="&#xe93c;" glyph-name="archive-5" d="M717.666 874.667h-411.306c-90.88 0-164.693-74.24-164.693-164.693v-601.173c0-76.8 55.040-109.227 122.453-72.107l208.213 115.627c22.187 12.373 58.027 12.373 79.787 0l208.213-115.627c67.413-37.547 122.453-5.12 122.453 72.107v601.173c-0.427 90.453-74.24 164.693-165.12 164.693zM640.439 544c-41.387-14.933-84.907-22.613-128.427-22.613s-87.040 7.68-128.426 22.613c-16.64 5.973-25.173 24.32-19.2 40.96 6.4 16.64 24.747 25.173 41.387 19.2 68.693-24.747 144.213-24.747 212.906 0 16.64 5.973 34.987-2.56 40.96-19.2s-2.56-34.987-19.2-40.96z" />
<glyph unicode="&#xe93d;" glyph-name="archive-add" d="M373.333 505.583c0 17.673 14.327 32 32 32h213.333c17.673 0 32-14.328 32-32s-14.327-32-32-32h-213.333c-17.673 0-32 14.327-32 32zM512 641.708c17.673 0 32-14.327 32-32v-213.335c0-17.673-14.327-32-32-32s-32 14.327-32 32v213.335c0 17.673 14.327 32 32 32zM109.667 709.973c0 108.073 88.087 196.693 196.693 196.693h411.306c108.638 0 196.612-88.617 197.12-196.542v-601.324c0-45.598-16.512-85.939-51.708-106.667-35.2-20.732-78.46-15.586-118.281 6.583zM744.798 8.717l-208.495 115.785c-4.847 2.756-13.423 5.099-23.915 5.099-10.466 0-19.273-2.33-24.469-5.227l-208.364-115.712c-39.863-21.948-83.067-26.889-118.181-6.208-35.139 20.693-51.708 60.877-51.708 106.347v601.173zM306.36 842.667c-73.153 0-132.693-59.859-132.693-132.693v-601.173c0-31.33 10.951-45.76 20.186-51.2 9.254-5.449 27.26-8.043 54.782 7.095 0.017 0.013 0.034 0.021 0.050 0.030l208.062 115.541c0.009 0.004-0.009-0.004 0 0 16.99 9.468 37.205 13.333 55.642 13.333 18.355 0 38.511-3.823 55.394-13.376l208.085-115.554c27.584-15.364 45.572-12.787 54.733-7.39 9.178 5.406 20.186 19.891 20.186 51.52v601.088c-0.38 72.952-60.019 132.779-133.12 132.779h-411.306z" />
<glyph unicode="&#xe93e;" glyph-name="archive-add-1" d="M717.666 874.667h-411.306c-90.88 0-164.693-74.24-164.693-164.693v-601.173c0-76.8 55.040-109.227 122.453-72.107l208.213 115.627c22.187 12.373 58.027 12.373 79.787 0l208.213-115.627c67.413-37.547 122.453-5.12 122.453 72.107v601.173c-0.427 90.453-74.24 164.693-165.12 164.693zM618.679 473.6h-74.667v-77.227c0-17.493-14.507-32-32-32s-32 14.507-32 32v77.227h-74.666c-17.493 0-32 14.507-32 32s14.507 32 32 32h74.666v72.107c0 17.493 14.507 32 32 32s32-14.507 32-32v-72.107h74.667c17.493 0 32-14.507 32-32s-14.507-32-32-32z" />
<glyph unicode="&#xe93f;" glyph-name="archive-book" d="M202.116 794.225c-27.338-29.44-42.116-73.798-42.116-132.892v-426.667c0-59.093 14.778-103.45 42.116-132.894 26.939-29.009 70.65-48.439 139.217-48.439h341.333c68.565 0 112.277 19.43 139.217 48.439 27.337 29.444 42.116 73.801 42.116 132.894v426.667c0 59.095-14.78 103.452-42.116 132.892-26.94 29.012-70.652 48.441-139.217 48.441h-341.333c-68.567 0-112.278-19.43-139.217-48.441zM155.217 837.775c42.394 45.655 105.35 68.892 186.116 68.892h341.333c80.768 0 143.723-23.237 186.116-68.892 41.997-45.226 59.217-107.536 59.217-176.441v-426.667c0-68.907-17.22-131.217-59.217-176.439-42.394-45.658-105.348-68.894-186.116-68.894h-341.333c-80.766 0-143.722 23.236-186.116 68.894-41.996 45.222-59.217 107.533-59.217 176.439v426.667c0 68.905 17.222 131.215 59.217 176.441zM330.667 874.667c0 17.673 14.327 32 32 32h298.667c17.673 0 32-14.327 32-32v-335.36c0-47.369-55.731-69.948-89.331-39.497l-0.209 0.188-91.793 84.675-92.003-84.863c-33.598-30.451-89.331-7.872-89.331 39.497v335.36zM394.667 842.667v-279.154l81.007 74.721c20.395 19.136 52.258 19.136 72.653 0l81.007-74.721v279.154h-234.667zM533.333 362.667c0 17.673 14.327 32 32 32h181.333c17.673 0 32-14.327 32-32s-14.327-32-32-32h-181.333c-17.673 0-32 14.327-32 32zM352 192c0 17.673 14.327 32 32 32h362.667c17.673 0 32-14.327 32-32s-14.327-32-32-32h-362.667c-17.673 0-32 14.327-32 32z" />
<glyph unicode="&#xe940;" glyph-name="archive-book-1" d="M637.026 853.333v-251.733c0-18.773-22.187-28.16-35.84-15.787l-74.667 68.693c-8.107 7.68-20.907 7.68-29.013 0l-74.666-68.267c-13.653-12.8-35.84-2.987-35.84 15.36v251.733c0 11.947 9.387 21.333 21.333 21.333h207.36c11.947 0 21.333-9.387 21.333-21.333zM724.48 872.111c-12.373 1.707-23.467-8.96-23.467-21.333v-256.853c0-32.427-19.2-61.867-49.067-75.094-29.867-12.8-64.427-7.253-88.32 14.934l-37.12 34.133c-8.107 7.68-20.48 7.68-29.013 0l-37.12-34.133c-15.36-14.507-35.413-21.76-55.467-21.76-11.093 0-22.187 2.133-32.853 6.827-29.867 13.227-49.067 42.667-49.067 75.094v256.853c0 12.373-11.093 23.040-23.467 21.333-119.467-14.933-171.52-95.573-171.52-210.773v-426.667c0-128 64-213.333 213.333-213.333h341.333c149.333 0 213.333 85.333 213.333 213.333v426.667c0 115.2-52.053 195.84-171.52 210.773zM746.667 160.004h-362.667c-17.493 0-32 14.507-32 32s14.507 32 32 32h362.667c17.493 0 32-14.507 32-32s-14.507-32-32-32zM746.667 330.671h-181.333c-17.493 0-32 14.507-32 32s14.507 32 32 32h181.333c17.493 0 32-14.507 32-32s-14.507-32-32-32z" />
<glyph unicode="&#xe941;" glyph-name="archive-minus" d="M373.333 505.583c0 17.673 14.327 32 32 32h213.333c17.673 0 32-14.328 32-32s-14.327-32-32-32h-213.333c-17.673 0-32 14.327-32 32zM109.667 709.973c0 108.073 88.087 196.693 196.693 196.693h411.306c108.638 0 196.612-88.617 197.12-196.542v-601.324c0-45.598-16.512-85.939-51.708-106.667-35.2-20.732-78.46-15.586-118.281 6.583zM744.798 8.717l-208.495 115.785c-4.847 2.756-13.423 5.099-23.915 5.099-10.466 0-19.273-2.33-24.469-5.227l-208.364-115.712c-39.863-21.948-83.067-26.889-118.181-6.208-35.139 20.693-51.708 60.877-51.708 106.347v601.173zM306.36 842.667c-73.153 0-132.693-59.859-132.693-132.693v-601.173c0-31.33 10.951-45.76 20.186-51.2 9.254-5.449 27.26-8.043 54.782 7.095 0.017 0.013 0.034 0.021 0.050 0.030l208.062 115.541c0.009 0.004-0.009-0.004 0 0 16.99 9.468 37.205 13.333 55.642 13.333 18.355 0 38.511-3.823 55.394-13.376l208.085-115.554c27.584-15.364 45.572-12.787 54.733-7.39 9.178 5.406 20.186 19.891 20.186 51.52v601.088c-0.38 72.952-60.019 132.779-133.12 132.779h-411.306z" />
<glyph unicode="&#xe942;" glyph-name="archive-minus-1" d="M717.666 874.667h-411.306c-90.88 0-164.693-74.24-164.693-164.693v-601.173c0-76.8 55.040-109.227 122.453-72.107l208.213 115.627c22.187 12.373 58.027 12.373 79.787 0l208.213-115.627c67.413-37.547 122.453-5.12 122.453 72.107v601.173c-0.427 90.453-74.24 164.693-165.12 164.693zM618.679 473.6h-213.333c-17.493 0-32 14.507-32 32s14.507 32 32 32h213.333c17.493 0 32-14.507 32-32s-14.507-32-32-32z" />
<glyph unicode="&#xe943;" glyph-name="archive-slash" d="M961.293 897.294c12.497-12.497 12.497-32.758 0-45.255l-853.332-853.332c-12.497-12.497-32.758-12.497-45.255 0s-12.497 32.755 0 45.252l853.335 853.335c12.497 12.497 32.755 12.497 45.252 0zM882.351 620.375c17.673 0 32-14.327 32-32v-469.335c0-49.929-18.155-93.329-55.881-115.524-37.734-22.204-84.51-16.986-128.222 7.356-0.469 0.26-0.934 0.533-1.391 0.819l-276.48 172.8c-14.989 9.37-19.541 29.111-10.176 44.096 9.365 14.989 29.107 19.546 44.096 10.176l275.763-172.348c31.014-17.067 52.284-14.609 63.957-7.74 11.767 6.925 24.333 24.533 24.333 60.365v469.335c0 17.673 14.327 32 32 32zM306.36 842.667c-73.153 0-132.693-59.859-132.693-132.693v-601.173c0-17.673-14.327-32-32-32s-32 14.327-32 32v601.173c0 108.073 88.087 196.693 196.693 196.693h411.733c61.76 0 116.83-28.635 152.905-73.347 11.098-13.754 8.943-33.901-4.809-44.998-13.756-11.097-33.903-8.943-45.001 4.812-24.512 30.382-61.602 49.533-103.095 49.533h-411.733z" />
<glyph unicode="&#xe944;" glyph-name="archive-slash-1" d="M858.466 794.453l-713.813-713.813c-2.133 8.533-2.987 17.92-2.987 28.16v601.173c0 90.453 73.813 164.693 164.693 164.693h411.306c59.733 0 112.213-32 140.8-80.213zM928.806 864.858c-12.8 12.8-33.707 12.8-46.507 0l-787.2-787.628c-12.8-12.8-12.8-33.707 0-46.507 6.4-5.973 14.507-9.387 23.040-9.387s16.64 3.413 23.040 9.813l787.626 787.628c13.227 12.8 13.227 33.28 0 46.080zM823.049 631.059l-315.311-315.308c-19.627-19.627-15.787-52.48 8.107-66.56l315.307-189.013c28.587-17.067 64.427 3.413 64.427 36.693v504.322c0.427 37.973-45.653 56.747-72.529 29.867z" />
<glyph unicode="&#xe945;" glyph-name="archive-tick" d="M109.667 709.973c0 108.073 88.087 196.693 196.693 196.693h411.306c108.638 0 196.612-88.617 197.12-196.542v-601.324c0-45.598-16.512-85.939-51.708-106.667-35.2-20.732-78.46-15.586-118.281 6.583zM744.798 8.717l-208.495 115.785c-4.847 2.756-13.423 5.099-23.915 5.099-10.466 0-19.273-2.33-24.469-5.227l-208.364-115.712c-39.863-21.948-83.067-26.889-118.181-6.208-35.139 20.693-51.708 60.877-51.708 106.347v601.173zM306.36 842.667c-73.153 0-132.693-59.859-132.693-132.693v-601.173c0-31.33 10.951-45.76 20.186-51.2 9.254-5.449 27.26-8.043 54.782 7.095 0.017 0.013 0.034 0.021 0.050 0.030l208.062 115.541c0.009 0.004-0.009-0.004 0 0 16.99 9.468 37.205 13.333 55.642 13.333 18.355 0 38.511-3.823 55.394-13.376l208.085-115.554c27.584-15.364 45.572-12.787 54.733-7.39 9.178 5.406 20.186 19.891 20.186 51.52v601.088c-0.38 72.952-60.019 132.779-133.12 132.779h-411.306zM666.462 619.961c12.497-12.497 12.497-32.758 0-45.255l-170.667-170.665c-12.497-12.497-32.759-12.497-45.257 0l-64 64c-12.497 12.497-12.497 32.755 0 45.252s32.758 12.497 45.256 0l41.37-41.37 148.041 148.038c12.497 12.497 32.759 12.497 45.257 0z" />
<glyph unicode="&#xe946;" glyph-name="archive-tick-1" d="M717.666 878.5h-411.306c-90.453 0-164.693-74.24-164.693-164.693v-601.175c0-76.8 55.040-109.227 122.453-72.107l208.213 115.627c22.187 12.373 58.027 12.373 79.787 0l208.213-115.627c67.413-37.547 122.453-5.12 122.453 72.107v601.175c-0.427 90.453-74.24 164.693-165.12 164.693zM666.466 574.713l-170.667-170.668c-6.4-6.4-14.507-9.387-22.613-9.387s-16.213 2.987-22.613 9.387l-64 64c-12.373 12.373-12.373 32.853 0 45.227s32.853 12.373 45.226 0l41.387-41.387 148.053 148.055c12.373 12.373 32.853 12.373 45.227 0s12.373-32.853 0-45.227z" />
<glyph unicode="&#xe947;" glyph-name="arrange-circle" d="M567.040 690.377c12.497 12.497 32.759 12.497 45.252 0l129.707-129.707c12.497-12.497 12.497-32.76 0-45.257-12.497-12.493-32.759-12.493-45.252 0.004l-129.707 129.705c-12.497 12.497-12.497 32.758 0 45.255zM589.666 699.75c17.673 0 32-14.327 32-32v-439.466c0-17.673-14.327-32-32-32s-32 14.327-32 32v439.466c0 17.673 14.327 32 32 32zM282.039 380.629c12.497 12.493 32.758 12.493 45.255 0l129.704-129.711c12.497-12.497 12.497-32.755 0-45.252s-32.757-12.497-45.254 0l-129.706 129.707c-12.497 12.497-12.497 32.759 0 45.257zM434.334 699.75c17.673 0 32-14.327 32-32v-439.466c0-17.673-14.327-32-32-32s-32 14.327-32 32v439.466c0 17.673 14.327 32 32 32zM512 842.667c-217.968 0-394.667-176.698-394.667-394.667 0-217.967 176.698-394.667 394.667-394.667 217.967 0 394.667 176.7 394.667 394.667 0 217.968-176.7 394.667-394.667 394.667zM53.333 448c0 253.315 205.352 458.667 458.667 458.667s458.667-205.352 458.667-458.667c0-253.316-205.35-458.667-458.667-458.667-253.315 0-458.667 205.35-458.667 458.667z" />
<glyph unicode="&#xe948;" glyph-name="arrange-circle-1" d="M512 874.667c-235.52 0-426.667-191.147-426.667-426.667s191.147-426.667 426.667-426.667c235.52 0 426.667 191.147 426.667 426.667s-191.147 426.667-426.667 426.667zM466.347 228.267c0-4.267-0.853-8.107-2.56-12.373-3.413-7.68-9.387-14.080-17.493-17.493-3.84-1.707-8.107-2.56-12.373-2.56s-8.107 0.853-12.373 2.56c-3.84 1.707-7.253 3.84-10.24 6.827l-129.707 129.707c-12.373 12.373-12.373 32.853 0 45.227s32.853 12.373 45.227 0l75.093-75.093v362.667c0 17.493 14.507 32 32 32s32-14.507 32-32v-439.467h0.427zM741.973 515.413c-6.4-6.4-14.507-9.387-22.613-9.387s-16.213 2.987-22.613 9.387l-75.093 75.093v-362.667c0-17.493-14.507-32-32-32s-32 14.507-32 32v439.893c0 4.267 0.853 8.107 2.56 12.373 3.413 7.68 9.387 14.080 17.493 17.493 7.68 3.413 16.64 3.413 24.32 0 3.84-1.707 7.253-3.84 10.24-6.827l129.707-129.707c12.373-12.8 12.373-32.853 0-45.653z" />
<glyph unicode="&#xe949;" glyph-name="arrange-circle-2" d="M754.5 392.96c12.497-12.497 12.497-32.759 0-45.252l-129.707-129.707c-12.497-12.497-32.759-12.497-45.257 0-12.493 12.497-12.493 32.759 0.004 45.252l129.707 129.707c12.497 12.497 32.755 12.497 45.252 0zM260.333 370.334c0 17.673 14.327 32 32 32h439.468c17.673 0 32-14.327 32-32s-14.327-32-32-32h-439.468c-17.673 0-32 14.327-32 32zM444.668 678.002c12.497-12.497 12.497-32.758 0-45.255l-129.707-129.708c-12.497-12.497-32.758-12.493-45.255 0-12.497 12.497-12.497 32.76 0 45.257l129.707 129.705c12.497 12.497 32.758 12.497 45.255 0zM260.333 525.666c0 17.674 14.327 32 32 32h439.468c17.673 0 32-14.327 32-32s-14.327-32-32-32h-439.468c-17.673 0-32 14.327-32 32zM512 842.667c-217.968 0-394.667-176.698-394.667-394.667 0-217.967 176.698-394.667 394.667-394.667 217.967 0 394.667 176.7 394.667 394.667 0 217.968-176.7 394.667-394.667 394.667zM53.333 448c0 253.315 205.352 458.667 458.667 458.667s458.667-205.352 458.667-458.667c0-253.316-205.35-458.667-458.667-458.667-253.315 0-458.667 205.35-458.667 458.667z" />
<glyph unicode="&#xe94a;" glyph-name="arrange-circle-2-1" d="M512 874.667c-235.52 0-426.667-191.147-426.667-426.667s191.147-426.667 426.667-426.667c235.52 0 426.667 191.147 426.667 426.667s-191.147 426.667-426.667 426.667zM761.6 358.4c-1.707-3.84-3.84-7.253-6.827-10.24l-129.707-129.707c-6.4-6.4-14.507-9.387-22.613-9.387s-16.213 2.987-22.613 9.387c-12.373 12.373-12.373 32.853 0 45.227l75.093 75.093h-362.667c-17.493 0-32 14.507-32 32s14.507 32 32 32h439.893c4.267 0 8.107-0.853 12.373-2.56 7.68-3.413 14.080-9.387 17.493-17.493 2.56-7.68 2.56-16.64-0.427-24.32zM731.733 493.653h-439.467c-4.267 0-8.533 0.853-12.373 2.56-7.68 3.413-14.080 9.387-17.493 17.493-3.413 7.68-3.413 16.64 0 24.32 1.707 3.84 3.84 7.253 6.827 10.24l129.707 129.707c12.373 12.373 32.853 12.373 45.227 0s12.373-32.853 0-45.227l-74.667-75.093h362.667c17.493 0 32-14.507 32-32s-14.507-32-32.427-32z" />
<glyph unicode="&#xe94b;" glyph-name="arrange-square" d="M132.039 827.961c56.937 56.937 142.138 78.706 251.961 78.706h256c109.824 0 195.025-21.769 251.959-78.706 56.939-56.937 78.707-142.138 78.707-251.961v-256c0-109.824-21.769-195.025-78.707-251.959-56.934-56.939-142.135-78.707-251.959-78.707h-256c-109.823 0-195.023 21.769-251.961 78.707-56.937 56.934-78.706 142.135-78.706 251.959v256c0 109.823 21.769 195.023 78.706 251.961zM177.294 782.706c-39.063-39.063-59.961-103.195-59.961-206.706v-256c0-103.509 20.898-167.642 59.961-206.707 39.063-39.061 103.195-59.959 206.706-59.959h256c103.509 0 167.642 20.898 206.707 59.959 39.061 39.066 59.959 103.198 59.959 206.707v256c0 103.511-20.898 167.643-59.959 206.706-39.066 39.063-103.198 59.961-206.707 59.961h-256c-103.511 0-167.643-20.898-206.706-59.961zM754.5 392.96c12.497-12.497 12.497-32.755 0-45.252l-129.707-129.707c-12.497-12.497-32.759-12.497-45.252 0-12.497 12.493-12.497 32.755 0 45.252l129.707 129.707c12.493 12.497 32.755 12.497 45.252 0zM260.333 370.334c0 17.673 14.327 32 32 32h439.468c17.673 0 32-14.327 32-32s-14.327-32-32-32h-439.468c-17.673 0-32 14.327-32 32zM444.668 678.002c12.497-12.497 12.497-32.758 0-45.255l-129.707-129.708c-12.497-12.497-32.758-12.497-45.255 0s-12.497 32.759 0 45.256l129.707 129.707c12.497 12.497 32.758 12.497 45.255 0zM260.333 525.666c0 17.674 14.327 32 32 32h439.468c17.673 0 32-14.327 32-32s-14.327-32-32-32h-439.468c-17.673 0-32 14.327-32 32z" />
<glyph unicode="&#xe94c;" glyph-name="arrange-square-1" d="M690.773 874.667h-357.547c-155.307 0-247.893-92.587-247.893-247.893v-357.12c0-155.733 92.587-248.32 247.893-248.32h357.12c155.307 0 247.893 92.587 247.893 247.893v357.547c0.427 155.307-92.16 247.893-247.467 247.893zM761.6 358.4c-1.707-3.84-3.84-7.253-6.827-10.24l-129.707-129.707c-6.4-6.4-14.507-9.387-22.613-9.387s-16.213 2.987-22.613 9.387c-12.373 12.373-12.373 32.853 0 45.227l75.093 75.093h-362.667c-17.493 0-32 14.507-32 32s14.507 32 32 32h439.893c4.267 0 8.107-0.853 12.373-2.56 7.68-3.413 14.080-9.387 17.493-17.493 2.56-7.68 2.56-16.64-0.427-24.32zM731.733 493.653h-439.467c-4.267 0-8.107 0.853-12.373 2.56-7.68 3.413-14.080 9.387-17.493 17.493-3.413 7.68-3.413 16.64 0 24.32 1.707 3.84 3.84 7.253 6.827 10.24l129.707 129.707c12.373 12.373 32.853 12.373 45.227 0s12.373-32.853 0-45.227l-74.667-75.093h362.667c17.493 0 32-14.507 32-32s-14.507-32-32.427-32z" />
<glyph unicode="&#xe94d;" glyph-name="arrange-square-2" d="M132.039 827.961c56.937 56.937 142.138 78.706 251.961 78.706h256c109.824 0 195.025-21.769 251.959-78.706 56.939-56.937 78.707-142.138 78.707-251.961v-256c0-109.824-21.769-195.025-78.707-251.959-56.934-56.939-142.135-78.707-251.959-78.707h-256c-109.823 0-195.023 21.769-251.961 78.707-56.937 56.934-78.706 142.135-78.706 251.959v256c0 109.823 21.769 195.023 78.706 251.961zM177.294 782.706c-39.063-39.063-59.961-103.195-59.961-206.706v-256c0-103.509 20.898-167.642 59.961-206.707 39.063-39.061 103.195-59.959 206.706-59.959h256c103.509 0 167.642 20.898 206.707 59.959 39.061 39.066 59.959 103.198 59.959 206.707v256c0 103.511-20.898 167.643-59.959 206.706-39.066 39.063-103.198 59.961-206.707 59.961h-256c-103.511 0-167.643-20.898-206.706-59.961zM282.039 380.629c12.497 12.493 32.758 12.493 45.255 0l129.708-129.707c12.493-12.497 12.493-32.759 0-45.257-12.497-12.497-32.76-12.497-45.257 0l-129.707 129.707c-12.497 12.497-12.497 32.759 0 45.257zM434.334 699.75c17.673 0 32-14.327 32-32v-439.466c0-17.673-14.327-32-32-32s-32 14.327-32 32v439.466c0 17.673 14.327 32 32 32zM567.040 690.377c12.497 12.497 32.755 12.497 45.252 0l129.707-129.707c12.497-12.497 12.497-32.756 0-45.253-12.493-12.497-32.755-12.497-45.252 0l-129.707 129.705c-12.497 12.497-12.497 32.758 0 45.255zM589.666 699.75c17.673 0 32-14.327 32-32v-439.466c0-17.673-14.327-32-32-32s-32 14.327-32 32v439.466c0 17.673 14.327 32 32 32z" />
<glyph unicode="&#xe94e;" glyph-name="arrange-square-2-1" d="M690.773 874.667h-357.547c-155.307 0-247.893-92.587-247.893-247.893v-357.12c0-155.733 92.587-248.32 247.893-248.32h357.12c155.307 0 247.893 92.587 247.893 247.893v357.547c0.427 155.307-92.16 247.893-247.467 247.893zM466.347 228.267c0-4.267-0.853-8.107-2.56-12.373-3.413-7.68-9.387-14.080-17.493-17.493-3.84-1.707-8.107-2.56-12.373-2.56s-8.107 0.853-12.373 2.56c-3.84 1.707-7.253 3.84-10.24 6.827l-129.707 129.707c-12.373 12.373-12.373 32.853 0 45.227s32.853 12.373 45.227 0l75.093-75.093v362.667c0 17.493 14.507 32 32 32s32-14.507 32-32v-439.467h0.427zM741.973 515.413c-6.4-6.4-14.507-9.387-22.613-9.387s-16.213 2.987-22.613 9.387l-75.093 75.093v-362.667c0-17.493-14.507-32-32-32s-32 14.507-32 32v439.893c0 4.267 0.853 8.107 2.56 12.373 3.413 7.68 9.387 14.080 17.493 17.493 7.68 3.413 16.64 3.413 24.32 0 3.84-1.707 7.253-3.84 10.24-6.827l129.707-129.707c12.373-12.8 12.373-32.853 0-45.653z" />
<glyph unicode="&#xe94f;" glyph-name="arrow" d="M512 138.667c17.673 0 32-14.327 32-32v-85.333c0-17.673-14.327-32-32-32s-32 14.327-32 32v85.333c0 17.673 14.327 32 32 32zM512 309.333c17.673 0 32-14.327 32-32v-85.333c0-17.673-14.327-32-32-32s-32 14.327-32 32v85.333c0 17.673 14.327 32 32 32zM810.667 757.333c-147.447 0-266.667-119.22-266.667-266.667v-128c0-17.673-14.327-32-32-32s-32 14.327-32 32v128c0 182.793 147.874 330.667 330.667 330.667h128c17.673 0 32-14.327 32-32s-14.327-32-32-32h-128zM53.333 789.333c0 17.673 14.327 32 32 32h128c182.793 0 330.667-147.874 330.667-330.667v-128c0-17.673-14.327-32-32-32s-32 14.327-32 32v128c0 147.447-119.22 266.667-266.667 266.667h-128c-17.673 0-32 14.327-32 32zM193.294 897.294c12.497-12.497 12.497-32.758 0-45.255l-62.706-62.706 62.706-62.706c12.497-12.497 12.497-32.758 0-45.255s-32.758-12.497-45.255 0l-85.333 85.333c-12.497 12.497-12.497 32.758 0 45.255l85.333 85.333c12.497 12.497 32.758 12.497 45.255 0zM830.707 897.294c12.497 12.497 32.755 12.497 45.252 0l85.333-85.333c12.497-12.497 12.497-32.758 0-45.255l-85.333-85.333c-12.497-12.497-32.755-12.497-45.252 0s-12.497 32.758 0 45.255l62.703 62.706-62.703 62.706c-12.497 12.497-12.497 32.758 0 45.255z" />
<glyph unicode="&#xe950;" glyph-name="arrow-1" d="M512-10.667c-17.493 0-32 14.507-32 32v85.333c0 17.493 14.507 32 32 32s32-14.507 32-32v-85.333c0-17.493-14.507-32-32-32zM512 160c-17.493 0-32 14.507-32 32v85.333c0 17.493 14.507 32 32 32s32-14.507 32-32v-85.333c0-17.493-14.507-32-32-32zM512 330.667c-17.493 0-32 14.507-32 32v128c0 182.187 148.48 330.667 330.667 330.667h128c17.493 0 32-14.507 32-32s-14.507-32-32-32h-128c-147.2 0-266.667-119.467-266.667-266.667v-128c0-17.493-14.507-32-32-32zM512 330.667c-17.493 0-32 14.507-32 32v128c0 147.2-119.467 266.667-266.667 266.667h-128c-17.493 0-32 14.507-32 32s14.507 32 32 32h128c182.187 0 330.667-148.48 330.667-330.667v-128c0-17.493-14.507-32-32-32zM170.727 671.982c-8.107 0-16.213 2.987-22.613 9.387l-85.333 85.333c-12.373 12.373-12.373 32.853 0 45.227l85.333 85.333c12.373 12.373 32.853 12.373 45.227 0s12.373-32.853 0-45.227l-62.72-62.72 62.72-62.72c12.373-12.373 12.373-32.853 0-45.227-6.4-6.4-14.507-9.387-22.613-9.387zM853.393 671.982c-8.107 0-16.213 2.987-22.613 9.387-12.373 12.373-12.373 32.853 0 45.227l62.72 62.72-62.72 62.72c-12.373 12.373-12.373 32.853 0 45.227s32.853 12.373 45.227 0l85.333-85.333c12.373-12.373 12.373-32.853 0-45.227l-85.333-85.333c-6.4-6.4-14.507-9.387-22.613-9.387z" />
<glyph unicode="&#xe951;" glyph-name="arrow-2" d="M714.705 854.211c12.497 12.497 32.759 12.497 45.257 0l158.72-158.719c12.493-12.497 12.493-32.758 0-45.254l-158.72-158.722c-12.497-12.497-32.759-12.497-45.257 0s-12.497 32.759 0 45.255l136.094 136.094-136.094 136.091c-12.497 12.497-12.497 32.758 0 45.255zM96 672.875c0 17.673 14.327 32 32 32h768c17.673 0 32-14.327 32-32s-14.327-32-32-32h-768c-17.673 0-32 14.327-32 32zM309.346 404.501c12.497-12.497 12.497-32.755 0-45.252l-136.092-136.094 136.091-136.094c12.497-12.497 12.497-32.755 0-45.252s-32.758-12.497-45.255 0l-158.719 158.716c-12.497 12.497-12.497 32.759 0 45.257l158.719 158.72c12.497 12.497 32.758 12.497 45.255 0zM96 223.168c0 17.673 14.327 32 32 32h768c17.673 0 32-14.327 32-32s-14.327-32-32-32h-768c-17.673 0-32 14.327-32 32z" />
<glyph unicode="&#xe952;" glyph-name="arrow-2-1" d="M928 672.845c0 8.533-3.413 16.64-9.387 22.613l-158.72 158.72c-12.373 12.373-32.853 12.373-45.227 0s-12.373-32.853 0-45.227l104.533-104.533h-691.2c-17.493 0-32-14.507-32-32s14.507-31.573 32-31.573h690.773l-104.107-104.107c-12.373-12.373-12.373-32.853 0-45.227 6.4-6.4 14.507-9.387 22.613-9.387s16.213 2.987 22.613 9.387l158.293 158.293c2.987 2.987 5.547 6.827 7.253 11.093 0 0.427 0 0.853 0.427 1.28 1.28 3.413 2.133 6.827 2.133 10.667zM896 255.138h-690.773l104.107 104.107c12.373 12.373 12.373 32.853 0 45.227s-32.853 12.373-45.227 0l-158.293-158.293c-2.987-2.987-5.547-6.827-7.253-11.093 0-0.427 0-0.853-0.427-1.28-1.28-3.413-2.133-7.253-2.133-11.093 0-8.533 3.413-16.64 9.387-22.613l158.72-158.72c6.4-6.4 14.507-9.387 22.613-9.387s16.213 2.987 22.613 9.387c12.373 12.373 12.373 32.853 0 45.227l-104.533 104.533h691.2c17.493 0 32 14.507 32 32s-14.507 32-32 32z" />
</font>
</defs>
</svg>
